[Blackjaxx]Sword Art Online Alicization War of Underworld vol-1[1080p x264 ][10bit][Dual-Audio]


Source LinksNyaa | Torrent Download | Magnet Link (4.761 GB) | NZB | Website
Date Submitted15/02/2020 14:31
Series (!)Sword Art Online: Alicization - War of Underworld - Episode 1 (of 12): In the Far North
Comment### video source =bdmv### first time did some effort in the release.some critical feedbak might hit me at head.### Vol 2 will be released 1maybe today or tomorrow (encoding tooked like alot of timeonly mixing with mbb is left)### subs(MTBB) - ![Imgur](https://i.imgur.com/Oao7guv.png)### audio- Jap AND Eng(default)[Adult swim](i know flac is losseless but why not truehd(also loseless).)### Short note =My goal is release all each BD volume right after MTBB gets done with their BD releases, in order to cause them mental anguish.VideoID : 1Format : AVCFormat/Info : Advanced Video CodecFormat profile : High 10@L4Format settings : CABAC / 4 Ref FramesFormat settings, CABAC YesFormat settings, Reference frames 4 framesCodec ID : V_MPEG4/ISO/AVCDuration : 23 min 40 sBit rate : 7425 kb/sWidth : 1 920 pixelsHeight : 1 080 pixelsDisplay aspect ratio : 16:9Frame rate mode : ConstantFrame rate : 23.976 (24000/1001) FPSColor space : YUVChroma subsampling : 4:2:0Bit depth : 10 bitsScan type : ProgressiveBits/(Pixel*Frame) : 0.129Stream size : 1.76 GiB (73%)Writing library : x264 core 157 r2935 545de2fEncoding settings : cabac=1 / ref=3 / deblock=1:0:0 / analyse=0x3:0x113 / me=hex / subme=7 / psy=1 / psy_rd=1.00:0.00 / mixed_ref=1 / me_range=16 / chroma_me=1 / trellis=1 / 8x8dct=1 / cqm=0 / deadzone=21,11 / fast_pskip=1 / chroma_qp_offset=-2 / threads=18 / lookahead_threads=3 / sliced_threads=0 / nr=0 / decimate=1 / interlaced=0 / bluray_compat=0 / constrained_intra=0 / bframes=3 / b_pyramid=2 / b_adapt=1 / b_bias=0 / direct=1 / weightb=1 / open_gop=0 / weightp=2 / keyint=250 / keyint_min=23 / scenecut=40 / intra_refresh=0 / rc_lookahead=40 / rc=crf / mbtree=1 / crf=15.0 / qcomp=0.60 / qpmin=0 / qpmax=81 / qpstep=4 / ip_ratio=1.40 / aq=1:1.00Language : EnglishDefault : YesForced : NoAudio #1ID : 2Format : MLP FBAFormat/Info : Meridian Lossless Packing FBACommercial name : Dolby TrueHDCodec ID : A_TRUEHDDuration : 23 min 41 sBit rate mode : VariableBit rate : 1 343 kb/sMaximum bit rate : 9 597 kb/sChannel(s) : 2 channelsChannel layout : L RSampling rate : 88.2 kHzFrame rate : 1 102.500 FPS (80 SPF)Compression mode : LosslessStream size : 228 MiB (15%)Language : JapaneseDefault : NoForced : NoAudio #2ID : 3Format : MLP FBAFormat/Info : Meridian Lossless Packing FBACommercial name : Dolby TrueHDCodec ID : A_TRUEHDDuration : 23 min 40 sBit rate mode : VariableBit rate : 858 kb/sMaximum bit rate : 9 597 kb/sChannel(s) : 2 channelsChannel layout : L RSampling rate : 48.0 kHzFrame rate : 1 200.000 FPS (40 SPF)Compression mode : LosslessStream size : 145 MiB (10%)Language : EnglishDefault : YesForced : NoText #1ID : 4Format : ASSCodec ID : S_TEXT/ASSCodec ID/Info : Advanced Sub Station AlphaDuration : 23 min 38 sBit rate : 279 b/sCount of elements : 302Compression mode : LosslessStream size : 48.4 KiB (0%)Title : Signs/Song[MTBB]Language : EnglishDefault : YesForced : NoText #2ID : 5Format : ASSCodec ID : S_TEXT/ASSCodec ID/Info : Advanced Sub Station AlphaDuration : 23 min 38 sBit rate : 360 b/sCount of elements : 538Compression mode : LosslessStream size : 62.4 KiB (0%)Title : Subtitles MTBB(full)Language : EnglishDefault : NoForced : NoText #3ID : 6Format : ASSCodec ID : S_TEXT/ASSCodec ID/Info : Advanced Sub Station AlphaDuration : 23 min 38 sBit rate : 360 b/sCount of elements : 538Compression mode : LosslessStream size : 62.4 KiB (0%)Title : Subtitles Honorifics[MTBB]Language : EnglishDefault : NoForced : No![Imgur](https://i.imgur.com/Qi1UAaE.jpg)
Tracker(s)
udp://tracker.opentrackr.org:1337/announceS: 1L: 1C: 35U: 118d, 4min ago
udp://tracker.coppersurfer.tk:6969/announceScrape failedU: 117d, 8hr, 2min ago
udp://exodus.desync.com:6969/announce-
http://nyaa.tracker.wf:7777/announceS: 2L: 0C: 59U: 117d, 15hr, 31min ago
udp://open.stealth.si:80/announceS: 1L: 0C: 43U: 117d, 7hr, 16min ago
Files
1.447 GB
1.560 GB
1.754 GB
SubtitlesAll Attachments



0 comment(s):
Add new comment
Name:
Comment Type:
Message:Please be aware of the following before commenting:
  • Anime Tosho provides a mirror of torrents and is not the source. Please understand that uploaders/submitters may not read comments here, so you should check the Source Links section near the top of this page if you wish to contact them
  • Expired links do NOT get reuploaded as files are deleted after we process them
  • Uploads are NOT instant, so please wait for them to be processed
  • The entire uploading process is done by a bot which does NOT read any comments, so asking for links will have no effect on when they show up
  • Critical comments are welcome, however note that statements such as "X is crap" or "Y sucks" are NOT criticisms and aren't useful to anyone. Please back such statements up with reasoning to be both informative and demonstrate that you aren't just some whiney kid.
Image Verification:

Our squiggly text game where the aim is to copy the image into the textbox. All characters are upper case, and there are no zeros (0) and ones (1) in the above image. Apparently bots aren't as good as humans at this game.
beta
Anime DDL+NZB mirror
Current Time: 11/07/2020 13:47



About/FAQs