Black.Clover.S01.P4.1080p.Blu-Ray.10-Bit.Dual-Audio.TrueHD.x265-iAHD


Source LinksNyaa | Torrent Download | Magnet Link (12.89 GB) | NZB
Date Submitted17/04/2019 22:06
Series (!)Black Clover (2017)
CommentVideoID : 1Format : HEVCFormat/Info : High Efficiency Video CodingFormat profile : Main 10@L5@MainCodec ID : V_MPEGH/ISO/HEVCDuration : 23 min 51 sBit rate : 4 413 kb/sWidth : 1 920 pixelsHeight : 1 080 pixelsDisplay aspect ratio : 16:9Frame rate mode : ConstantFrame rate : 23.976 (24000/1001) FPSColor space : YUVChroma subsampling : 4:2:0Bit depth : 10 bitsBits/(Pixel*Frame) : 0.089Stream size : 753 MiB (60%)Writing library : x265 2.9:[Windows][GCC 8.2.0][64 bit] 10bitEncoding settings : cpuid=1111039 / frame-threads=4 / numa-pools=16 / wpp / no-pmode / no-pme / no-psnr / no-ssim / log-level=2 / input-csp=1 / input-res=1920x1080 / interlace=0 / total-frames=0 / level-idc=0 / high-tier=1 / uhd-bd=0 / ref=6 / no-allow-non-conformance / no-repeat-headers / annexb / no-aud / no-hrd / info / hash=0 / no-temporal-layers / open-gop / min-keyint=24 / keyint=240 / gop-lookahead=0 / bframes=16 / b-adapt=2 / b-pyramid / bframe-bias=0 / rc-lookahead=50 / lookahead-slices=4 / scenecut=40 / radl=0 / no-intra-refresh / ctu=32 / min-cu-size=8 / rect / no-amp / max-tu-size=32 / tu-inter-depth=1 / tu-intra-depth=3 / limit-tu=0 / rdoq-level=2 / dynamic-rd=0.00 / no-ssim-rd / signhide / tskip / nr-intra=0 / nr-inter=0 / no-constrained-intra / strong-intra-smoothing / max-merge=3 / limit-refs=3 / limit-modes / me=3 / subme=3 / merange=57 / temporal-mvp / weightp / no-weightb / no-analyze-src-pics / deblock=0:0 / sao / no-sao-non-deblock / rd=4 / no-early-skip / rskip / no-fast-intra / tskip-fast / no-cu-lossless / no-b-intra / no-splitrd-skip / rdpenalty=0 / psy-rd=2.00 / psy-rdoq=1.00 / no-rd-refine / no-lossless / cbqpoffs=0 / crqpoffs=0 / rc=crf / crf=16.0 / qcomp=0.60 / qpstep=4 / stats-write=0 / stats-read=0 / ipratio=1.40 / pbratio=1.30 / aq-mode=3 / aq-strength=0.80 / cutree / zone-count=0 / no-strict-cbr / qg-size=32 / no-rc-grain / qpmax=69 / qpmin=0 / no-const-vbv / sar=1 / overscan=0 / videoformat=5 / range=0 / colorprim=1 / transfer=1 / colormatrix=1 / chromaloc=0 / display-window=0 / max-cll=0,0 / min-luma=0 / max-luma=1023 / log2-max-poc-lsb=8 / vui-timing-info / vui-hrd-info / slices=1 / no-opt-qp-pps / no-opt-ref-list-length-pps / no-multi-pass-opt-rps / scenecut-bias=0.05 / no-opt-cu-delta-qp / no-aq-motion / no-hdr / no-hdr-opt / no-dhdr10-opt / no-idr-recovery-sei / analysis-reuse-level=5 / scale-factor=0 / refine-intra=0 / refine-inter=0 / refine-mv=0 / no-limit-sao / ctu-info=0 / no-lowpass-dct / refine-mv-type=0 / copy-pic=1 / max-ausize-factor=1.0 / no-dynamic-refine / no-single-seiLanguage : EnglishDefault : YesForced : NoColor range : LimitedColor primaries : BT.709Transfer characteristics : BT.709Matrix coefficients : BT.709Audio #1ID : 2Format : MLP FBAFormat/Info : Meridian Lossless Packing FBACommercial name : Dolby TrueHDCodec ID : A_TRUEHDDuration : 23 min 51 sBit rate mode : VariableBit rate : 2 020 kb/sMaximum bit rate : 3 645 kb/sChannel(s) : 6 channelsChannel layout : L R C LFE Ls RsSampling rate : 48.0 kHzFrame rate : 1 200.000 FPS (40 SPF)Compression mode : LosslessStream size : 345 MiB (27%)Language : EnglishDefault : YesForced : NoAudio #2ID : 3Format : MLP FBAFormat/Info : Meridian Lossless Packing FBACommercial name : Dolby TrueHDCodec ID : A_TRUEHDDuration : 23 min 51 sBit rate mode : VariableBit rate : 789 kb/sMaximum bit rate : 1 224 kb/sChannel(s) : 2 channelsChannel layout : L RSampling rate : 48.0 kHzFrame rate : 1 200.000 FPS (40 SPF)Compression mode : LosslessStream size : 135 MiB (11%)Language : JapaneseDefault : NoForced : NoText #1ID : 4Format : PGSMuxing mode : zlibCodec ID : S_HDMV/PGSCodec ID/Info : Picture based subtitle format used on BDs/HD-DVDsDuration : 22 min 4 sBit rate : 6 777 b/sCount of elements : 113Stream size : 1.07 MiB (0%)Title : Signs / SongsLanguage : EnglishDefault : YesForced : NoText #2ID : 5Format : PGSMuxing mode : zlibCodec ID : S_HDMV/PGSCodec ID/Info : Picture based subtitle format used on BDs/HD-DVDsDuration : 23 min 47 sBit rate : 43.5 kb/sCount of elements : 780Stream size : 7.40 MiB (1%)Title : DialogueLanguage : EnglishDefault : NoForced : NoMenu00:00:00.000 : en:Chapter 0100:01:33.010 : en:Chapter 0200:03:03.100 : en:Chapter 0300:11:09.961 : en:Chapter 0400:21:20.029 : en:Chapter 0500:22:49.994 : en:Chapter 0600:23:36.081 : en:Chapter 07
Tracker(s)
udp://tracker.opentrackr.org:1337/announceS: 4L: 1C: 24U: 9d, 17hr, 21min ago
udp://tracker.coppersurfer.tk:6969/announceScrape failedU: 8d, 21hr, 44min ago
http://anidex.moe:6969/announceS: 2L: 1C: 3U: 8d, 1min ago
udp://exodus.desync.com:6969/announce-
http://nyaa.tracker.wf:7777/announceS: 9L: 1C: 181U: 14d, 19hr, 18min ago
udp://open.stealth.si:80/announceScrape failedU: 14d, 19hr, 4min ago
Files
1.228 GB
1.204 GB
1.162 GB
1.190 GB
1.272 GB
1.230 GB
1.168 GB
1.433 GB
1.118 GB
1.316 GB
388.7 MB
44.58 MB
149.8 MB
SubtitlesAll Attachments



0 comment(s):
Add new comment
Name:
Comment Type:
Message:Please be aware of the following before commenting:
  • Anime Tosho provides a mirror of torrents and is not the source. Please understand that uploaders/submitters may not read comments here, so you should check the Source Links section near the top of this page if you wish to contact them
  • Expired links do NOT get reuploaded as files are deleted after we process them
  • Uploads are NOT instant, so please wait for them to be processed
  • The entire uploading process is done by a bot which does NOT read any comments, so asking for links will have no effect on when they show up
  • Critical comments are welcome, however note that statements such as "X is crap" or "Y sucks" are NOT criticisms and aren't useful to anyone. Please back such statements up with reasoning to be both informative and demonstrate that you aren't just some whiney kid.
Image Verification:

Our squiggly text game where the aim is to copy the image into the textbox. All characters are upper case, and there are no zeros (0) and ones (1) in the above image. Apparently bots aren't as good as humans at this game.
beta
Anime DDL+NZB mirror
Current Time: 25/05/2019 18:09



About/FAQs