Bang Dream 2nd season Ep 9 [720p 60fps ]


Source LinksNyaa | Torrent Download | Magnet Link (382.9 MB) | NZB
Date Submitted01/03/2019 02:25
Series (!)Bang Dream! 2nd Season - Episode 9 (of 13): School Festival Symphony
Comment*animations are smoother*stuttering fixGeneralUnique ID : 252238731568034907281127018955029390068 (0xBDC369A1DD6DD55E8920CBF26DE8A2F4)Format : MatroskaFormat version : Version 4 / Version 2File size : 383 MiBDuration : 24 min 25 sOverall bit rate : 2 192 kb/sEncoded date : UTC 2019-03-01 02:23:00VideoID : 1Format : AVCFormat/Info : Advanced Video CodecFormat profile : High@L4.2Format settings : CABAC / 4 Ref FramesFormat settings, CABAC : YesFormat settings, ReFrames : 4 framesCodec ID : V_MPEG4/ISO/AVCDuration : 24 min 25 sBit rate : 2 000 kb/sWidth : 1 280 pixelsHeight : 720 pixelsDisplay aspect ratio : 16:9Frame rate mode : ConstantFrame rate : 60.000 FPSColor space : YUVChroma subsampling : 4:2:0Bit depth : 8 bitsScan type : ProgressiveBits/(Pixel*Frame) : 0.036Stream size : 348 MiB (91%)Writing library : x264 core 155 r2901 7d0ff22Default : YesForced : YesColor range : LimitedMatrix coefficients : BT.470 System B/GAudioID : 2Format : AACFormat/Info : Advanced Audio CodecFormat profile : LCCodec ID : A_AAC-2Duration : 24 min 25 sBit rate : 192 kb/sChannel(s) : 2 channelsChannel positions : Front: L RSampling rate : 48.0 kHzFrame rate : 46.875 FPS (1024 SPF)Compression mode : LossyDelay relative to video : 6 msStream size : 33.7 MiB (9%)Default : YesForced : NoTextID : 3Format : ASSCodec ID : S_TEXT/ASSCodec ID/Info : Advanced Sub Station AlphaDuration : 23 min 33 sBit rate : 124 b/sCount of elements : 350Compression mode : LosslessStream size : 21.4 KiB (0%)Default : YesForced : No
Tracker(s)
udp://tracker.opentrackr.org:1337/announceS: 0L: 0C: 0U: 13d, 9hr, 56min ago
udp://tracker.coppersurfer.tk:6969/announceScrape failedU: 120d, 14hr, 15min ago
udp://tracker.internetwarriors.net:1337/announce-
udp://exodus.desync.com:6969/announce-
udp://9.rarbg.me:2710/announceS: 0L: 0C: 0U: 14hr, 7min ago
http://tracker3.itzmx.com:6961/announceScrape failedU: 14hr, 6min ago
udp://tracker.leechers-paradise.org:6969/announceS: 0L: 0C: 0U: 41d, 8hr, 14min ago
udp://explodie.org:6969/announceS: 0L: 0C: 0U: 9hr, 11min ago
udp://tracker.torrent.eu.org:451/announceS: 0L: 0C: 0U: 13hr, 58min ago
udp://9.rarbg.to:2710/announceS: 0L: 0C: 0U: 1d, 2hr, 33min ago
udp://ipv4.tracker.harry.lu:80/announceS: 0L: 0C: 0U: 20hr, 21min ago
udp://tracker.cyberia.is:6969/announceS: 0L: 0C: 0U: 1d, 20hr, 8min ago
http://nyaa.tracker.wf:7777/announceS: 0L: 0C: 7U: 19d, 9hr, 50min ago
udp://tracker.tiny-vps.com:6969/announceS: 0L: 0C: 0U: 18d, 20hr, 33min ago
udp://open.stealth.si:80/announceScrape failedU: 43d, 6hr, 46min ago
udp://tracker4.itzmx.com:2710/announceScrape failedU: 8hr, 18min ago
udp://tracker1.itzmx.com:8080/announceScrape failedU: 18hr, 51min ago
udp://open.demonii.si:1337/announceScrape failedU: 12hr, 52min ago
udp://denis.stalker.upeer.me:6969/announceScrape failedU: 18hr, 48min ago
udp://tracker2.itzmx.com:6961/announceS: 0L: 0C: 0U: 18hr, 48min ago
udp://tracker.nyaa.uk:6969/announceS: 0L: 0C: 0U: 18hr, 40min ago
udp://tracker.moeking.me:6969/announceS: 0L: 0C: 0U: 12hr, 42min ago
File Name (Size)Bang Dream 2nd season Ep 9 [720p 60fps ] .mkv (382.9 MB)
DownloadClickNUpload | Go4Up
  • DownAce
  • FileFactory
  • KatFile
  • Oboom
  • OwnDrives
  • Share-Online
  • SolidFiles
  • TusFiles
  • Uppit
  • UsersCloud
| Jheberg | MultiUp | OpenLoad | ZippyShare
Sendspace: Part1, Part2
Screenshots
screenshotscreenshotscreenshotscreenshotscreenshot
SubtitlesAll Attachments | und [ASS]



0 comment(s):
Add new comment
Name:
Comment Type:
Message:Please be aware of the following before commenting:
  • Anime Tosho provides a mirror of torrents and is not the source. Please understand that uploaders/submitters may not read comments here, so you should check the Source Links section near the top of this page if you wish to contact them
  • Expired links do NOT get reuploaded as files are deleted after we process them
  • Uploads are NOT instant, so please wait for them to be processed
  • The entire uploading process is done by a bot which does NOT read any comments, so asking for links will have no effect on when they show up
  • Critical comments are welcome, however note that statements such as "X is crap" or "Y sucks" are NOT criticisms and aren't useful to anyone. Please back such statements up with reasoning to be both informative and demonstrate that you aren't just some whiney kid.
Image Verification:

Our squiggly text game where the aim is to copy the image into the textbox. All characters are upper case, and there are no zeros (0) and ones (1) in the above image. Apparently bots aren't as good as humans at this game.
beta
Anime DDL+NZB mirror
Current Time: 23/07/2019 14:30



About/FAQs