Bang Dream 2nd season Ep 9 [1080p 60fps ]


Source LinksNyaa | Torrent Download | Magnet Link (784.2 MB) | NZB
Date Submitted28/02/2019 23:08
Series (!)Bang Dream! 2nd Season - Episode 9 (of 13): School Festival Symphony
Comment*animations are less choppy*stuttering fixGeneralUnique ID : 159011683703241032989258683208207174163 (0x77A0894BF31F34AD2B6B1B17C8E00A13)Format : MatroskaFormat version : Version 4 / Version 2File size : 784 MiBDuration : 24 min 25 sOverall bit rate : 4 490 kb/sEncoded date : UTC 2019-02-28 22:55:21Writing application : mkvmerge v28.2.0 ('The Awakening') 32-bitWriting library : libebml v1.3.6 + libmatroska v1.4.9VideoID : 1Format : AVCFormat/Info : Advanced Video CodecFormat profile : High@L4.2Format settings : CABAC / 4 Ref FramesFormat settings, CABAC : YesFormat settings, ReFrames : 4 framesCodec ID : V_MPEG4/ISO/AVCDuration : 24 min 25 sBit rate : 4 300 kb/sWidth : 1 920 pixelsHeight : 1 080 pixelsDisplay aspect ratio : 16:9Frame rate mode : ConstantFrame rate : 60.000 FPSColor space : YUVChroma subsampling : 4:2:0Bit depth : 8 bitsScan type : ProgressiveBits/(Pixel*Frame) : 0.035Stream size : 750 MiB (96%)Writing library : x264 core 155 r2901 7d0ff22Default : YesForced : YesColor range : LimitedMatrix coefficients : BT.470 System B/GAudioID : 2Format : AACFormat/Info : Advanced Audio CodecFormat profile : LCCodec ID : A_AAC-2Duration : 24 min 25 sBit rate : 192 kb/sChannel(s) : 2 channelsChannel positions : Front: L RSampling rate : 48.0 kHzFrame rate : 46.875 FPS (1024 SPF)Compression mode : LossyDelay relative to video : 6 msStream size : 33.7 MiB (4%)Default : YesForced : NoTextID : 3Format : ASSCodec ID : S_TEXT/ASSCodec ID/Info : Advanced Sub Station AlphaDuration : 23 min 33 sBit rate : 124 b/sCount of elements : 350Compression mode : LosslessStream size : 21.4 KiB (0%)Default : YesForced : No
Tracker(s)
udp://tracker.opentrackr.org:1337/announceS: 0L: 0C: 0U: 29d, 16hr, 28min ago
udp://tracker.coppersurfer.tk:6969/announceScrape failedU: 49d, 9hr, 31min ago
udp://tracker.internetwarriors.net:1337/announce-
udp://exodus.desync.com:6969/announce-
udp://9.rarbg.me:2710/announceS: 0L: 0C: 0U: 2hr, 49min ago
http://tracker3.itzmx.com:6961/announceScrape failedU: 2hr, 47min ago
udp://tracker.leechers-paradise.org:6969/announceS: 0L: 0C: 0U: 40d, 5hr, 21min ago
udp://explodie.org:6969/announceS: 0L: 0C: 0U: 2hr, 44min ago
udp://tracker.torrent.eu.org:451/announceS: 0L: 0C: 0U: 2hr, 39min ago
udp://9.rarbg.to:2710/announceS: 0L: 0C: 0U: 1d, 3hr, 28min ago
udp://ipv4.tracker.harry.lu:80/announceS: 0L: 0C: 0U: 9hr ago
udp://tracker.cyberia.is:6969/announceS: 1L: 0C: 0U: 2d, 12hr, 8min ago
http://nyaa.tracker.wf:7777/announceS: 0L: 0C: 25U: 10d, 50min ago
udp://tracker.tiny-vps.com:6969/announceS: 0L: 0C: 0U: 26d, 12hr, 13min ago
udp://open.stealth.si:80/announceS: 0L: 0C: 0U: 37d, 22hr, 5min ago
udp://tracker4.itzmx.com:2710/announceScrape failedU: 1hr, 47min ago
udp://tracker1.itzmx.com:8080/announceScrape failedU: 15hr, 24min ago
udp://open.demonii.si:1337/announceS: 0L: 0C: 0U: 1hr, 17min ago
udp://denis.stalker.upeer.me:6969/announceS: 0L: 0C: 0U: 21hr, 5min ago
udp://tracker2.itzmx.com:6961/announceScrape failedU: 15hr, 23min ago
udp://tracker.nyaa.uk:6969/announceS: 0L: 0C: 0U: 7hr, 51min ago
udp://tracker.moeking.me:6969/announceS: 0L: 0C: 0U: 7hr, 50min ago
File Name (Size)Bang Dream 2nd season Ep 9 [1080p 60fps ] .mkv (784.2 MB)
DownloadClickNUpload | Jheberg | OpenLoad
MultiUp: Part1, Part2
Sendspace: Part1, Part2, Part3
ZippyShare: Part1, Part2
Screenshots
screenshotscreenshotscreenshotscreenshotscreenshot
SubtitlesAll Attachments | und [ASS]



0 comment(s):
Add new comment
Name:
Comment Type:
Message:Please be aware of the following before commenting:
  • Anime Tosho provides a mirror of torrents and is not the source. Please understand that uploaders/submitters may not read comments here, so you should check the Source Links section near the top of this page if you wish to contact them
  • Expired links do NOT get reuploaded as files are deleted after we process them
  • Uploads are NOT instant, so please wait for them to be processed
  • The entire uploading process is done by a bot which does NOT read any comments, so asking for links will have no effect on when they show up
  • Critical comments are welcome, however note that statements such as "X is crap" or "Y sucks" are NOT criticisms and aren't useful to anyone. Please back such statements up with reasoning to be both informative and demonstrate that you aren't just some whiney kid.
Image Verification:

Our squiggly text game where the aim is to copy the image into the textbox. All characters are upper case, and there are no zeros (0) and ones (1) in the above image. Apparently bots aren't as good as humans at this game.
beta
Anime DDL+NZB mirror
Current Time: 23/09/2019 01:53



About/FAQs