Bang Dream 2nd season Ep 8 [1080p 60 fps ]


Source LinksNyaa | Torrent Download | Magnet Link (872.6 MB) | NZB
Date Submitted21/02/2019 17:32
Series (!)Bang Dream! 2nd Season - Episode 8 (of 13): You're Not Alone
Comment*animations are less choppyGeneralUnique ID : 162659266590455380689113216981356205401 (0x7A5F09048FE71C74B6E8E476F4EB5559)Format : MatroskaFormat version : Version 4 / Version 2File size : 873 MiBDuration : 24 min 24 sOverall bit rate : 4 997 kb/sEncoded date : UTC 2019-02-21 17:24:16Writing application : mkvmerge v28.2.0 ('The Awakening') 32-bitWriting library : libebml v1.3.6 + libmatroska v1.4.9VideoID : 1Format : AVCFormat/Info : Advanced Video CodecFormat profile : High@L4.2Format settings : CABAC / 4 Ref FramesFormat settings, CABAC : YesFormat settings, ReFrames : 4 framesCodec ID : V_MPEG4/ISO/AVCDuration : 24 min 24 sBit rate : 4 800 kb/sWidth : 1 920 pixelsHeight : 1 080 pixelsDisplay aspect ratio : 16:9Frame rate mode : ConstantFrame rate : 60.000 FPSColor space : YUVChroma subsampling : 4:2:0Bit depth : 8 bitsScan type : ProgressiveBits/(Pixel*Frame) : 0.039Stream size : 838 MiB (96%)Writing library : x264 core 155 r2901 7d0ff22Default : YesForced : YesColor range : LimitedMatrix coefficients : BT.470 System B/GAudioID : 2Format : AACFormat/Info : Advanced Audio CodecFormat profile : LCCodec ID : A_AAC-2Duration : 24 min 24 sBit rate : 192 kb/sChannel(s) : 2 channelsChannel positions : Front: L RSampling rate : 48.0 kHzFrame rate : 46.875 FPS (1024 SPF)Compression mode : LossyDelay relative to video : 8 msStream size : 33.7 MiB (4%)Default : YesForced : NoTextID : 3Format : ASSCodec ID : S_TEXT/ASSCodec ID/Info : Advanced Sub Station AlphaDuration : 23 min 26 sBit rate : 120 b/sCount of elements : 336Compression mode : LosslessStream size : 20.7 KiB (0%)Default : YesForced : No
Tracker(s)
udp://tracker.opentrackr.org:1337/announceS: 0L: 0C: 0U: 34d, 23hr, 44min ago
udp://tracker.coppersurfer.tk:6969/announceScrape failedU: 56d, 14hr, 35min ago
udp://tracker.internetwarriors.net:1337/announce-
udp://exodus.desync.com:6969/announce-
http://tracker3.itzmx.com:6961/announceScrape failedU: 9hr, 17min ago
udp://explodie.org:6969/announceS: 0L: 0C: 0U: 2hr, 43min ago
udp://tracker.torrent.eu.org:451/announceS: 0L: 0C: 0U: 9hr, 7min ago
udp://thetracker.org:80/announceScrape failedU: 21hr, 40min ago
udp://9.rarbg.to:2710/announceS: 0L: 0C: 0U: 1d, 3hr, 27min ago
udp://ipv4.tracker.harry.lu:80/announceS: 0L: 0C: 0U: 8hr, 59min ago
udp://tracker1.wasabii.com.tw:6969/announceScrape failedU: 8hr, 54min ago
http://nyaa.tracker.wf:7777/announceS: 0L: 0C: 32U: 26d, 23hr, 56min ago
udp://tracker.tiny-vps.com:6969/announceS: 0L: 0C: 0U: 8hr, 40min ago
udp://open.stealth.si:80/announceS: 0L: 0C: 0U: 40d, 46min ago
udp://tracker.dler.org:6969/announceScrape failedU: 1hr, 43min ago
udp://tracker.port443.xyz:6969/announceScrape failedU: 21hr, 5min ago
udp://tracker1.itzmx.com:8080/announceScrape failedU: 15hr, 23min ago
udp://open.demonii.si:1337/announceS: 0L: 0C: 0U: 1hr, 16min ago
udp://denis.stalker.upeer.me:6969/announceS: 0L: 0C: 0U: 21hr, 4min ago
udp://tracker2.itzmx.com:6961/announceScrape failedU: 15hr, 22min ago
File Name (Size)Bang Dream 2nd season Ep 8 [1080p 60fps ] .mkv (872.6 MB)
DownloadClickNUpload | Jheberg | OpenLoad
MultiUp: Part1, Part2
Sendspace: Part1, Part2, Part3
ZippyShare: Part1, Part2
Screenshots
screenshotscreenshotscreenshotscreenshotscreenshot
SubtitlesAll Attachments | und [ASS]



0 comment(s):
Add new comment
Name:
Comment Type:
Message:Please be aware of the following before commenting:
  • Anime Tosho provides a mirror of torrents and is not the source. Please understand that uploaders/submitters may not read comments here, so you should check the Source Links section near the top of this page if you wish to contact them
  • Expired links do NOT get reuploaded as files are deleted after we process them
  • Uploads are NOT instant, so please wait for them to be processed
  • The entire uploading process is done by a bot which does NOT read any comments, so asking for links will have no effect on when they show up
  • Critical comments are welcome, however note that statements such as "X is crap" or "Y sucks" are NOT criticisms and aren't useful to anyone. Please back such statements up with reasoning to be both informative and demonstrate that you aren't just some whiney kid.
Image Verification:

Our squiggly text game where the aim is to copy the image into the textbox. All characters are upper case, and there are no zeros (0) and ones (1) in the above image. Apparently bots aren't as good as humans at this game.
beta
Anime DDL+NZB mirror
Current Time: 23/09/2019 01:52



About/FAQs