Source LinksNyaa | Torrent Download | Magnet Link (872.8 MB) | NZB
Date Submitted07/02/2019 18:55
Series (!)Bang Dream! 2nd Season - Episode 6 (of 13): You Only Live Once
Comment* animations are less jitter*subs are borrowedGeneralUnique ID : 302529047307423759340197499625111550638 (0xE398F9A1D556AC4A3E1B5D59323BFAAE)Complete name Format : MatroskaFormat version : Version 4 / Version 2File size : 873 MiBDuration : 24 min 25 sOverall bit rate : 4 997 kb/sEncoded date : UTC 2019-02-07 17:17:35Writing application : mkvmerge v28.2.0 ('The Awakening') 32-bitWriting library : libebml v1.3.6 + libmatroska v1.4.9 / Lavf58.12.100VideoID : 1Format : AVCFormat/Info : Advanced Video CodecFormat profile : Baseline@L5Format settings : 6 Ref FramesFormat settings, CABAC : NoFormat settings, ReFrames : 6 framesCodec ID : V_MPEG4/ISO/AVCDuration : 24 min 25 sBit rate : 4 801 kb/sWidth : 1 920 pixelsHeight : 1 080 pixelsDisplay aspect ratio : 16:9Frame rate mode : ConstantFrame rate : 30.000 FPSColor space : YUVChroma subsampling : 4:2:0Bit depth : 8 bitsScan type : ProgressiveBits/(Pixel*Frame) : 0.077Stream size : 839 MiB (96%)Default : YesForced : NoAudioID : 2Format : AACFormat/Info : Advanced Audio CodecFormat profile : LCCodec ID : A_AAC-2Duration : 24 min 25 sBit rate : 192 kb/sChannel(s) : 2 channelsChannel positions : Front: L RSampling rate : 48.0 kHzFrame rate : 46.875 FPS (1024 SPF)Compression mode : LossyStream size : 33.7 MiB (4%)Default : YesForced : NoTextID : 3Format : ASSCodec ID : S_TEXT/ASSCodec ID/Info : Advanced Sub Station AlphaDuration : 23 min 37 sBit rate : 137 b/sCount of elements : 437Compression mode : LosslessStream size : 23.8 KiB (0%)Default : YesForced : No
Tracker(s)
udp://tracker.openbittorrent.com:80/announce-
udp://tracker.opentrackr.org:1337/announceS: 0L: 0C: 0U: 51d, 8hr, 11min ago
udp://tracker.coppersurfer.tk:6969/announceScrape failedU: 10d, 9hr, 6min ago
udp://tracker.internetwarriors.net:1337/announce-
udp://exodus.desync.com:6969/announce-
http://tracker3.itzmx.com:6961/announceScrape failedU: 1d, 1hr, 7min ago
udp://tracker.leechers-paradise.org:6969/announceS: 0L: 0C: 0U: 68d, 40min ago
udp://explodie.org:6969/announceS: 0L: 0C: 0U: 4hr, 31min ago
udp://tracker.torrent.eu.org:451/announceS: 0L: 0C: 0U: 4hr, 24min ago
udp://thetracker.org:80/announceScrape failedU: 9hr, 37min ago
udp://9.rarbg.to:2710/announceS: 0L: 0C: 0U: 9hr, 36min ago
udp://ipv4.tracker.harry.lu:80/announceS: 0L: 0C: 0U: 19hr, 3min ago
udp://tracker1.wasabii.com.tw:6969/announceScrape failedU: 9hr, 30min ago
http://nyaa.tracker.wf:7777/announceS: 0L: 0C: 6U: 40d, 14hr, 21min ago
udp://tracker.tiny-vps.com:6969/announceS: 0L: 0C: 0U: 2d, 21hr, 18min ago
udp://open.stealth.si:80/announceS: 0L: 0C: 0U: 74d, 6hr, 38min ago
udp://tracker.dler.org:6969/announceScrape failedU: 22hr, 33min ago
udp://tracker.port443.xyz:6969/announceScrape failedU: 13hr, 15min ago
udp://tracker1.itzmx.com:8080/announceScrape failedU: 11hr, 28min ago
udp://open.demonii.si:1337/announceS: 0L: 0C: 0U: 5hr, 55min ago
udp://denis.stalker.upeer.me:6969/announceS: 0L: 0C: 0U: 11hr, 26min ago
udp://tracker2.itzmx.com:6961/announceS: 0L: 0C: 0U: 11hr, 26min ago
File Name (Size)Bang Dream 2nd season Ep 6 [1080p 30].mkv (872.8 MB)
DownloadClickNUpload | Jheberg | OpenLoad
MultiUp: Part1, Part2
Sendspace: Part1, Part2, Part3
ZippyShare: Part1, Part2
Screenshots
screenshotscreenshotscreenshotscreenshotscreenshot
SubtitlesAll Attachments | und [ASS]



0 comment(s):
Add new comment
Name:
Comment Type:
Message:Please be aware of the following before commenting:
  • Anime Tosho provides a mirror of torrents and is not the source. Please understand that uploaders/submitters may not read comments here, so you should check the Source Links section near the top of this page if you wish to contact them
  • Expired links do NOT get reuploaded as files are deleted after we process them
  • Uploads are NOT instant, so please wait for them to be processed
  • The entire uploading process is done by a bot which does NOT read any comments, so asking for links will have no effect on when they show up
  • Critical comments are welcome, however note that statements such as "X is crap" or "Y sucks" are NOT criticisms and aren't useful to anyone. Please back such statements up with reasoning to be both informative and demonstrate that you aren't just some whiney kid.
Image Verification:

Our squiggly text game where the aim is to copy the image into the textbox. All characters are upper case, and there are no zeros (0) and ones (1) in the above image. Apparently bots aren't as good as humans at this game.
beta
Anime DDL+NZB mirror
Current Time: 19/07/2019 04:45



About/FAQs