Bang Dream 2nd season Ep 6 [720p 30]


Source LinksNyaa | Torrent Download | Magnet Link (525.8 MB) | NZB
Date Submitted07/02/2019 22:03
Series (!)Bang Dream! 2nd Season - Episode 6 (of 13): You Only Live Once
Comment* animations are less jaggyGeneralUnique ID : 209320044326413474540513169644064107121 (0x9D7992FA5F2D9A61B337BE2500246A71)Format : MatroskaFormat version : Version 4 / Version 2File size : 526 MiBDuration : 24 min 25 sOverall bit rate : 3 010 kb/sEncoded date : UTC 2019-02-07 21:54:15Writing application : mkvmerge v28.2.0 ('The Awakening') 32-bitWriting library : libebml v1.3.6 + libmatroska v1.4.9VideoID : 1Format : AVCFormat/Info : Advanced Video CodecFormat profile : High 10@L5.1Format settings : CABAC / 5 Ref FramesFormat settings, CABAC : YesFormat settings, ReFrames : 5 framesCodec ID : V_MPEG4/ISO/AVCDuration : 24 min 25 sBit rate : 2 497 kb/sWidth : 1 280 pixelsHeight : 720 pixelsDisplay aspect ratio : 16:9Frame rate mode : ConstantFrame rate : 29.970 (29970/1000) FPSOriginal frame rate : 29.970 (30000/1001) FPSColor space : YUVChroma subsampling : 4:2:0Bit depth : 10 bitsScan type : ProgressiveBits/(Pixel*Frame) : 0.090Stream size : 436 MiB (83%)Writing library : x264 core 152 r2851 ba24899Encoding settings : cabac=1 / ref=5 / deblock=1:1:1 / analyse=0x3:0x133 / me=umh / subme=7 / psy=1 / psy_rd=0.40:0.00 / mixed_ref=1 / me_range=24 / chroma_me=1 / trellis=1 / 8x8dct=1 / cqm=0 / deadzone=21,11 / fast_pskip=1 / chroma_qp_offset=-2 / threads=9 / lookahead_threads=1 / sliced_threads=0 / nr=0 / decimate=1 / interlaced=0 / bluray_compat=0 / constrained_intra=0 / bframes=3 / b_pyramid=2 / b_adapt=1 / b_bias=0 / direct=1 / weightb=1 / open_gop=0 / weightp=2 / keyint=300 / keyint_min=29 / scenecut=40 / intra_refresh=0 / rc_lookahead=40 / rc=2pass / mbtree=1 / bitrate=2497 / ratetol=1.0 / qcomp=0.60 / qpmin=10 / qpmax=51 / qpstep=4 / cplxblur=20.0 / qblur=0.5 / vbv_maxrate=300000 / vbv_bufsize=300000 / nal_hrd=none / filler=0 / ip_ratio=1.40 / aq=2:0.60Default : YesForced : NoAudioID : 2Format : AC-3Format/Info : Audio Coding 3Codec ID : A_AC3Duration : 24 min 25 sBit rate mode : ConstantBit rate : 512 kb/sChannel(s) : 2 channelsChannel positions : Front: L RSampling rate : 44.1 kHzFrame rate : 28.711 FPS (1536 SPF)Bit depth : 16 bitsCompression mode : LossyStream size : 89.4 MiB (17%)Language : newService kind : Complete MainDefault : YesForced : NoTextID : 3Format : ASSCodec ID : S_TEXT/ASSCodec ID/Info : Advanced Sub Station AlphaDuration : 23 min 37 sBit rate : 137 b/sCount of elements : 437Compression mode : LosslessStream size : 23.8 KiB (0%)Default : YesForced : No
Tracker(s)
udp://tracker.openbittorrent.com:80/announce-
udp://tracker.opentrackr.org:1337/announceS: 0L: 0C: 0U: 48d, 4hr, 53min ago
udp://tracker.coppersurfer.tk:6969/announceScrape failedU: 9d, 12min ago
udp://tracker.internetwarriors.net:1337/announce-
udp://exodus.desync.com:6969/announce-
http://tracker3.itzmx.com:6961/announceScrape failedU: 1d, 1hr, 10min ago
udp://tracker.leechers-paradise.org:6969/announceS: 0L: 0C: 0U: 67d, 1hr ago
udp://explodie.org:6969/announceS: 0L: 0C: 0U: 4hr, 33min ago
udp://tracker.torrent.eu.org:451/announceScrape failedU: 9hr, 42min ago
udp://thetracker.org:80/announceScrape failedU: 1hr, 55min ago
udp://9.rarbg.to:2710/announceS: 0L: 0C: 0U: 9hr, 39min ago
udp://ipv4.tracker.harry.lu:80/announceS: 0L: 0C: 0U: 1hr, 55min ago
udp://tracker1.wasabii.com.tw:6969/announceScrape failedU: 9hr, 32min ago
http://nyaa.tracker.wf:7777/announceS: 0L: 0C: 7U: 40d, 19hr, 10min ago
udp://tracker.tiny-vps.com:6969/announceScrape failedU: 2d, 18hr, 18min ago
udp://open.stealth.si:80/announceScrape failedU: 73d, 8hr, 18min ago
udp://tracker.dler.org:6969/announceScrape failedU: 13hr, 56min ago
udp://tracker.port443.xyz:6969/announceScrape failedU: 13hr, 17min ago
udp://tracker1.itzmx.com:8080/announceScrape failedU: 11hr, 30min ago
udp://open.demonii.si:1337/announceS: 0L: 0C: 0U: 15hr, 51min ago
udp://denis.stalker.upeer.me:6969/announceS: 0L: 0C: 0U: 11hr, 28min ago
udp://tracker2.itzmx.com:6961/announceS: 0L: 0C: 0U: 11hr, 28min ago
File Name (Size)Bang Dream 2nd season Ep 6 [720p 30] .mkv (525.8 MB)
DownloadClickNUpload | Go4Up | Jheberg | OpenLoad
MultiUp: Part1, Part2
Sendspace: Part1, Part2
ZippyShare: Part1, Part2
Screenshots
screenshotscreenshotscreenshotscreenshotscreenshot
SubtitlesAll Attachments | und [ASS]



0 comment(s):
Add new comment
Name:
Comment Type:
Message:Please be aware of the following before commenting:
  • Anime Tosho provides a mirror of torrents and is not the source. Please understand that uploaders/submitters may not read comments here, so you should check the Source Links section near the top of this page if you wish to contact them
  • Expired links do NOT get reuploaded as files are deleted after we process them
  • Uploads are NOT instant, so please wait for them to be processed
  • The entire uploading process is done by a bot which does NOT read any comments, so asking for links will have no effect on when they show up
  • Critical comments are welcome, however note that statements such as "X is crap" or "Y sucks" are NOT criticisms and aren't useful to anyone. Please back such statements up with reasoning to be both informative and demonstrate that you aren't just some whiney kid.
Image Verification:

Our squiggly text game where the aim is to copy the image into the textbox. All characters are upper case, and there are no zeros (0) and ones (1) in the above image. Apparently bots aren't as good as humans at this game.
beta
Anime DDL+NZB mirror
Current Time: 19/07/2019 04:48



About/FAQs