[Arukoru] Ueno-san wa Bukiyou (How Clumsy You Are, Miss Ueno.) - Episode 06 - Ii Umbrella E-Q Booster [1080p x265 10bit WEB Multi-Sub AAC]


Source LinksNyaa | Torrent Download | Magnet Link (177.1 MB) | NZB
Date Submitted11/02/2019 03:44
Series (!)Ueno-san wa Bukiyou - Episode 6 (of 12): II Umbrella / E-Q Booster
Comment[![Arukoru-Ueno-san-wa-Bukiyou-How-Clumsy-You-Are-Miss-Ueno.png](https://i.postimg.cc/Zn672Wjd/Arukoru-Ueno-san-wa-Bukiyou-How-Clumsy-You-Are-Miss-Ueno.png)](https://postimg.cc/MfKmjKC6)[![Arukoru-Ueno-san-wa-Bukiyou-How-Clumsy-You-Are-Miss-Ueno.png](https://i.postimg.cc/gchTn7d2/Arukoru-Ueno-san-wa-Bukiyou-How-Clumsy-You-Are-Miss-Ueno.png)](https://postimg.cc/dDqBf4Lb)[![Arukoru-Ueno-san-wa-Bukiyou-How-Clumsy-You-Are-Miss-Ueno.png](https://i.postimg.cc/Qd84Yx7F/Arukoru-Ueno-san-wa-Bukiyou-How-Clumsy-You-Are-Miss-Ueno.png)](https://postimg.cc/4m0QmGBG)Format : MatroskaFormat version : Version 4File size : 177 MiBDuration : 12 min 30 sOverall bit rate : 1 978 kb/sEncoded date : UTC 2019-02-11 03:25:31Writing application : mkvmerge v29.0.0 ('Like It Or Not') 64-bitWriting library : libebml v1.3.6 + libmatroska v1.4.9 / Lavf58.20.100VideoID : 1Format : HEVCFormat/Info : High Efficiency Video CodingFormat profile : Main 10@L4@MainCodec ID : V_MPEGH/ISO/HEVCDuration : 12 min 30 sBit rate : 1 847 kb/sWidth : 1 920 pixelsHeight : 1 080 pixelsDisplay aspect ratio : 16:9Frame rate mode : ConstantFrame rate : 23.976 (24000/1001) FPSColor space : YUVChroma subsampling : 4:2:0Bit depth : 10 bitsBits/(Pixel*Frame) : 0.037Stream size : 165 MiB (93%)Writing library : x265 2.9:[Windows][GCC 7.1.0][64 bit] 10bitDefault : YesForced : NoColor range : LimitedColor primaries : BT.709Transfer characteristics : BT.709Matrix coefficients : BT.709AudioID : 2Format : AAC LCFormat/Info : Advanced Audio Codec Low ComplexityCodec ID : A_AAC-2Duration : 12 min 30 sBit rate : 128 kb/sChannel(s) : 2 channelsChannel layout : L RSampling rate : 44.1 kHzFrame rate : 43.066 FPS (1024 SPF)Compression mode : LossyStream size : 11.5 MiB (6%)Language : JapaneseDefault : YesForced : NoText #1ID : 3Format : ASSCodec ID : S_TEXT/ASSCodec ID/Info : Advanced Sub Station AlphaDuration : 10 min 28 sBit rate : 130 b/sCount of elements : 158Compression mode : LosslessStream size : 9.99 KiB (0%)Language : EnglishDefault : YesForced : YesText #2ID : 4Format : ASSCodec ID : S_TEXT/ASSCodec ID/Info : Advanced Sub Station AlphaDuration : 10 min 23 sBit rate : 133 b/sCount of elements : 159Compression mode : LosslessStream size : 10.1 KiB (0%)Language : GermanDefault : NoForced : NoText #3ID : 5Format : ASSCodec ID : S_TEXT/ASSCodec ID/Info : Advanced Sub Station AlphaDuration : 10 min 23 sBit rate : 106 b/sCount of elements : 140Compression mode : LosslessStream size : 8.11 KiB (0%)Language : SpanishDefault : NoForced : NoText #4ID : 6Format : ASSCodec ID : S_TEXT/ASSCodec ID/Info : Advanced Sub Station AlphaDuration : 10 min 23 sBit rate : 107 b/sCount of elements : 140Compression mode : LosslessStream size : 8.21 KiB (0%)Title : MexicoLanguage : SpanishDefault : NoForced : NoText #5ID : 7Format : ASSCodec ID : S_TEXT/ASSCodec ID/Info : Advanced Sub Station AlphaDuration : 10 min 23 sBit rate : 128 b/sCount of elements : 144Compression mode : LosslessStream size : 9.81 KiB (0%)Language : FrenchDefault : NoForced : NoText #6ID : 8Format : ASSCodec ID : S_TEXT/ASSCodec ID/Info : Advanced Sub Station AlphaDuration : 10 min 28 sBit rate : 129 b/sCount of elements : 147Compression mode : LosslessStream size : 9.92 KiB (0%)Language : ItalianDefault : NoForced : NoText #7ID : 9Format : ASSCodec ID : S_TEXT/ASSCodec ID/Info : Advanced Sub Station AlphaDuration : 10 min 27 sBit rate : 130 b/sCount of elements : 157Compression mode : LosslessStream size : 10.0 KiB (0%)Language : PortugueseDefault : NoForced : NoText #8ID : 10Format : ASSCodec ID : S_TEXT/ASSCodec ID/Info : Advanced Sub Station AlphaDuration : 10 min 26 sBit rate : 182 b/sCount of elements : 148Compression mode : LosslessStream size : 14.0 KiB (0%)Language : RussianDefault : NoForced : NoSource:CR WEB-DL
Tracker(s)
udp://tracker.opentrackr.org:1337/announceS: 1L: 0C: 0U: 51d, 7hr, 40min ago
udp://tracker.coppersurfer.tk:6969/announceScrape failedU: 50d, 3hr, 39min ago
udp://exodus.desync.com:6969/announce-
http://nyaa.tracker.wf:7777/announceS: 2L: 0C: 42U: 50d, 3hr, 23min ago
udp://open.stealth.si:80/announceS: 1L: 0C: 28U: 52d, 16hr, 52min ago
File Name (Size)[Arukoru] Ueno-san wa Bukiyou (How Clumsy You Are, Miss Ueno.) - Episode 06 - Ii Umbrella E-Q Booster [1080p x265 10bit WEB Multi-Sub AAC].mkv (177.1 MB)
DownloadClickNUpload | Go4Up | Jheberg | MultiUp | OpenLoad | Sendspace | ZippyShare
Screenshots
screenshotscreenshotscreenshotscreenshotscreenshot
SubtitlesAll Attachments | eng [ASS], ger [ASS], spa [ASS], Mexico [spa, ASS], fre [ASS], ita [ASS], por [ASS], rus [ASS]



0 comment(s):
Add new comment
Name:
Comment Type:
Message:Please be aware of the following before commenting:
  • Anime Tosho provides a mirror of torrents and is not the source. Please understand that uploaders/submitters may not read comments here, so you should check the Source Links section near the top of this page if you wish to contact them
  • Expired links do NOT get reuploaded as files are deleted after we process them
  • Uploads are NOT instant, so please wait for them to be processed
  • The entire uploading process is done by a bot which does NOT read any comments, so asking for links will have no effect on when they show up
  • Critical comments are welcome, however note that statements such as "X is crap" or "Y sucks" are NOT criticisms and aren't useful to anyone. Please back such statements up with reasoning to be both informative and demonstrate that you aren't just some whiney kid.
Image Verification:

Our squiggly text game where the aim is to copy the image into the textbox. All characters are upper case, and there are no zeros (0) and ones (1) in the above image. Apparently bots aren't as good as humans at this game.
beta
Anime DDL+NZB mirror
Current Time: 26/04/2019 02:49



About/FAQs