[Arukoru] Endro! - Episode 02 - Demon Lord, Vanish into the Sunset! [1080p x265 10bit WEB English Dub AAC]


Source LinksNyaa | Torrent Download | Magnet Link (326.9 MB) | NZB
Date Submitted11/02/2019 03:31
Series (!)Endro~! - Episode 2 (of 12): Demon Lord, Vanish into the Sunset!
Comment[![Arukoru-Endro-Episode-02-Demon-Lord-Vanish-into-the-Sun.png](https://i.postimg.cc/tgz3VhJJ/Arukoru-Endro-Episode-02-Demon-Lord-Vanish-into-the-Sun.png)](https://postimg.cc/Ny59321v)[![Arukoru-Endro-Episode-02-Demon-Lord-Vanish-into-the-Sun.png](https://i.postimg.cc/DZj1xnqK/Arukoru-Endro-Episode-02-Demon-Lord-Vanish-into-the-Sun.png)](https://postimg.cc/1nFgtxCW)[![Arukoru-Endro-Episode-02-Demon-Lord-Vanish-into-the-Sun.png](https://i.postimg.cc/nrNBt2RR/Arukoru-Endro-Episode-02-Demon-Lord-Vanish-into-the-Sun.png)](https://postimg.cc/30CdXXHm)Format : MatroskaFormat version : Version 4File size : 327 MiBDuration : 23 min 54 sOverall bit rate : 1 912 kb/sEncoded date : UTC 2019-02-11 03:14:11Writing application : mkvmerge v29.0.0 ('Like It Or Not') 64-bitWriting library : libebml v1.3.6 + libmatroska v1.4.9 / Lavf58.20.100VideoID : 1Format : HEVCFormat/Info : High Efficiency Video CodingFormat profile : Main 10@L4@MainCodec ID : V_MPEGH/ISO/HEVCDuration : 23 min 54 sBit rate : 1 656 kb/sWidth : 1 920 pixelsHeight : 1 080 pixelsDisplay aspect ratio : 16:9Frame rate mode : ConstantFrame rate : 23.976 (24000/1001) FPSColor space : YUVChroma subsampling : 4:2:0Bit depth : 10 bitsBits/(Pixel*Frame) : 0.033Stream size : 283 MiB (87%)Writing library : x265 2.9:[Windows][GCC 7.1.0][64 bit] 10bitEncoding settings : cpuid=1111039 / frame-threads=2 / numa-pools=4 / wpp / no-pmode / no-pme / no-psnr / no-ssim / log-level=2 / input-csp=1 / input-res=1920x1080 / interlace=0 / total-frames=0 / level-idc=0 / high-tier=1 / uhd-bd=0 / ref=2 / no-allow-non-conformance / no-repeat-headers / annexb / no-aud / no-hrd / info / hash=0 / no-temporal-layers / open-gop / min-keyint=24 / keyint=240 / gop-lookahead=0 / bframes=4 / b-adapt=0 / b-pyramid / bframe-bias=0 / rc-lookahead=15 / lookahead-slices=6 / scenecut=40 / radl=0 / no-intra-refresh / ctu=64 / min-cu-size=8 / no-rect / no-amp / max-tu-size=32 / tu-inter-depth=1 / tu-intra-depth=1 / limit-tu=0 / rdoq-level=0 / dynamic-rd=0.00 / no-ssim-rd / signhide / no-tskip / nr-intra=0 / nr-inter=0 / no-constrained-intra / strong-intra-smoothing / max-merge=2 / limit-refs=3 / no-limit-modes / me=1 / subme=1 / merange=57 / temporal-mvp / weightp / no-weightb / no-analyze-src-pics / deblock=0:0 / sao / no-sao-non-deblock / rd=2 / early-skip / rskip / fast-intra / no-tskip-fast / no-cu-lossless / no-b-intra / no-splitrd-skip / rdpenalty=0 / psy-rd=2.00 / psy-rdoq=0.00 / no-rd-refine / no-lossless / cbqpoffs=0 / crqpoffs=0 / rc=crf / crf=21.0 / qcomp=0.60 / qpstep=4 / stats-write=0 / stats-read=0 / ipratio=1.40 / pbratio=1.30 / aq-mode=1 / aq-strength=1.00 / cutree / zone-count=0 / no-strict-cbr / qg-size=32 / no-rc-grain / qpmax=69 / qpmin=0 / no-const-vbv / sar=1 / overscan=0 / videoformat=5 / range=0 / colorprim=1 / transfer=1 / colormatrix=1 / chromaloc=0 / display-window=0 / max-cll=0,0 / min-luma=0 / max-luma=1023 / log2-max-poc-lsb=8 / vui-timing-info / vui-hrd-info / slices=1 / no-opt-qp-pps / no-opt-ref-list-length-pps / no-multi-pass-opt-rps / scenecut-bias=0.05 / no-opt-cu-delta-qp / no-aq-motion / no-hdr / no-hdr-opt / no-dhdr10-opt / no-idr-recovery-sei / analysis-reuse-level=5 / scale-factor=0 / refine-intra=0 / refine-inter=0 / refine-mv=0 / no-limit-sao / ctu-info=0 / no-lowpass-dct / refine-mv-type=0 / copy-pic=1 / max-ausize-factor=1.0 / no-dynamic-refine / no-single-seiDefault : YesForced : NoColor range : LimitedColor primaries : BT.709Transfer characteristics : BT.709Matrix coefficients : BT.709AudioID : 2Format : AAC LCFormat/Info : Advanced Audio Codec Low ComplexityCodec ID : A_AAC-2Duration : 23 min 54 sBit rate : 253 kb/sChannel(s) : 2 channelsChannel layout : L RSampling rate : 48.0 kHzFrame rate : 46.875 FPS (1024 SPF)Compression mode : LossyStream size : 43.3 MiB (13%)Language : EnglishDefault : YesForced : NoSource:Funi WEB-DL
Tracker(s)
udp://tracker.opentrackr.org:1337/announceS: 0L: 1C: 0U: 11hr, 22min ago
udp://tracker.coppersurfer.tk:6969/announceScrape failedU: 10hr, 41min ago
udp://exodus.desync.com:6969/announce-
http://nyaa.tracker.wf:7777/announceS: 1L: 1C: 35U: 20hr, 9min ago
udp://open.stealth.si:80/announceS: 0L: 0C: 0U: 8hr, 24min ago
File Name (Size)[Arukoru] Endro! - Episode 02 - Demon Lord, Vanish into the Sunset! [1080p x265 10bit WEB English Dub AAC].mkv (326.9 MB)
DownloadClickNUpload | Go4Up | Jheberg | MultiUp | OpenLoad | ZippyShare
Sendspace: Part1, Part2
Screenshots
screenshotscreenshotscreenshotscreenshotscreenshot



0 comment(s):
Add new comment
Name:
Comment Type:
Message:Please be aware of the following before commenting:
  • Anime Tosho provides a mirror of torrents and is not the source. Please understand that uploaders/submitters may not read comments here, so you should check the Source Links section near the top of this page if you wish to contact them
  • Expired links do NOT get reuploaded as files are deleted after we process them
  • Uploads are NOT instant, so please wait for them to be processed
  • The entire uploading process is done by a bot which does NOT read any comments, so asking for links will have no effect on when they show up
  • Critical comments are welcome, however note that statements such as "X is crap" or "Y sucks" are NOT criticisms and aren't useful to anyone. Please back such statements up with reasoning to be both informative and demonstrate that you aren't just some whiney kid.
Image Verification:

Our squiggly text game where the aim is to copy the image into the textbox. All characters are upper case, and there are no zeros (0) and ones (1) in the above image. Apparently bots aren't as good as humans at this game.
beta
Anime DDL+NZB mirror
Current Time: 18/02/2019 11:25



About/FAQs