[Arukoru] Boogiepop wa Warawanai (Boogiepop And Others) - Episode 02 - Boogiepop And Others 2 [1080p x265 10bit WEB Multi-Sub AAC]


Source LinksNyaa | Torrent Download | Magnet Link (214.3 MB) | NZB
Date Submitted06/01/2019 02:50
Series (!)Boogiepop wa Warawanai - Episode 2 (of 18): Boogiepop and Others 2
Comment[![Arukoru-Boogiepop-And-Others-Episode-02-Boogiepop-And-Othe.png](https://i.postimg.cc/dV4kR1tB/Arukoru-Boogiepop-And-Others-Episode-02-Boogiepop-And-Othe.png)](https://postimg.cc/qN6v4pKh)[![Arukoru-Boogiepop-And-Others-Episode-02-Boogiepop-And-Othe.png](https://i.postimg.cc/5tyHsVXM/Arukoru-Boogiepop-And-Others-Episode-02-Boogiepop-And-Othe.png)](https://postimg.cc/FftsKwbP)[![Arukoru-Boogiepop-And-Others-Episode-02-Boogiepop-And-Othe.png](https://i.postimg.cc/bv5ZMBnS/Arukoru-Boogiepop-And-Others-Episode-02-Boogiepop-And-Othe.png)](https://postimg.cc/B8xZPNMJ)Format : MatroskaFormat version : Version 4File size : 214 MiBDuration : 23 min 40 sOverall bit rate : 1 266 kb/sEncoded date : UTC 2019-01-06 02:42:49Writing application : mkvmerge v29.0.0 ('Like It Or Not') 64-bitWriting library : libebml v1.3.6 + libmatroska v1.4.9 / Lavf58.20.100VideoID : 1Format : HEVCFormat/Info : High Efficiency Video CodingFormat profile : Main 10@L4@MainCodec ID : V_MPEGH/ISO/HEVCDuration : 23 min 40 sBit rate : 1 135 kb/sWidth : 1 920 pixelsHeight : 1 080 pixelsDisplay aspect ratio : 16:9Frame rate mode : ConstantFrame rate : 23.976 (24000/1001) FPSColor space : YUVChroma subsampling : 4:2:0Bit depth : 10 bitsBits/(Pixel*Frame) : 0.023Stream size : 192 MiB (90%)Writing library : x265 2.9:[Windows][GCC 7.1.0][64 bit] 10bitEncoding settings : cpuid=1111039 / frame-threads=2 / numa-pools=4 / wpp / no-pmode / no-pme / no-psnr / no-ssim / log-level=2 / input-csp=1 / input-res=1920x1080 / interlace=0 / total-frames=0 / level-idc=0 / high-tier=1 / uhd-bd=0 / ref=3 / no-allow-non-conformance / no-repeat-headers / annexb / no-aud / no-hrd / info / hash=0 / no-temporal-layers / open-gop / min-keyint=24 / keyint=240 / gop-lookahead=0 / bframes=4 / b-adapt=0 / b-pyramid / bframe-bias=0 / rc-lookahead=15 / lookahead-slices=6 / scenecut=40 / radl=0 / no-intra-refresh / ctu=64 / min-cu-size=8 / no-rect / no-amp / max-tu-size=32 / tu-inter-depth=1 / tu-intra-depth=1 / limit-tu=0 / rdoq-level=0 / dynamic-rd=0.00 / no-ssim-rd / signhide / no-tskip / nr-intra=0 / nr-inter=0 / no-constrained-intra / strong-intra-smoothing / max-merge=2 / limit-refs=3 / no-limit-modes / me=1 / subme=2 / merange=57 / temporal-mvp / weightp / no-weightb / no-analyze-src-pics / deblock=0:0 / sao / no-sao-non-deblock / rd=2 / no-early-skip / rskip / fast-intra / no-tskip-fast / no-cu-lossless / no-b-intra / no-splitrd-skip / rdpenalty=0 / psy-rd=2.00 / psy-rdoq=0.00 / no-rd-refine / no-lossless / cbqpoffs=0 / crqpoffs=0 / rc=crf / crf=20.0 / qcomp=0.60 / qpstep=4 / stats-write=0 / stats-read=0 / ipratio=1.40 / pbratio=1.30 / aq-mode=1 / aq-strength=1.00 / cutree / zone-count=0 / no-strict-cbr / qg-size=32 / no-rc-grain / qpmax=69 / qpmin=0 / no-const-vbv / sar=255 / sar-width / : / sar-height=959:960 / overscan=0 / videoformat=5 / range=0 / colorprim=1 / transfer=1 / colormatrix=1 / chromaloc=0 / display-window=0 / max-cll=0,0 / min-luma=0 / max-luma=1023 / log2-max-poc-lsb=8 / vui-timing-info / vui-hrd-info / slices=1 / no-opt-qp-pps / no-opt-ref-list-length-pps / no-multi-pass-opt-rps / scenecut-bias=0.05 / no-opt-cu-delta-qp / no-aq-motion / no-hdr / no-hdr-opt / no-dhdr10-opt / no-idr-recovery-sei / analysis-reuse-level=5 / scale-factor=0 / refine-intra=0 / refine-inter=0 / refine-mv=0 / no-limit-sao / ctu-info=0 / no-lowpass-dct / refine-mv-type=0 / copy-pic=1 / max-ausize-factor=1.0 / no-dynamic-refine / no-single-seiDefault : YesForced : NoColor range : LimitedColor primaries : BT.709Transfer characteristics : BT.709Matrix coefficients : BT.709AudioID : 2Format : AAC LCFormat/Info : Advanced Audio Codec Low ComplexityCodec ID : A_AAC-2Duration : 23 min 40 sBit rate : 128 kb/sChannel(s) : 2 channelsChannel layout : L RSampling rate : 44.1 kHzFrame rate : 43.066 FPS (1024 SPF)Compression mode : LossyStream size : 21.7 MiB (10%)Language : JapaneseDefault : YesForced : YesText #1ID : 3Format : ASSCodec ID : S_TEXT/ASSCodec ID/Info : Advanced Sub Station AlphaDuration : 21 min 50 sBit rate : 125 b/sCount of elements : 269Compression mode : LosslessStream size : 20.0 KiB (0%)Language : EnglishDefault : YesForced : YesText #2ID : 4Format : ASSCodec ID : S_TEXT/ASSCodec ID/Info : Advanced Sub Station AlphaDuration : 21 min 50 sBit rate : 153 b/sCount of elements : 269Compression mode : LosslessStream size : 24.6 KiB (0%)Language : ArabicDefault : NoForced : NoText #3ID : 5Format : ASSCodec ID : S_TEXT/ASSCodec ID/Info : Advanced Sub Station AlphaDuration : 20 min 32 sBit rate : 120 b/sCount of elements : 262Compression mode : LosslessStream size : 18.1 KiB (0%)Language : SpanishDefault : NoForced : NoText #4ID : 6Format : ASSCodec ID : S_TEXT/ASSCodec ID/Info : Advanced Sub Station AlphaDuration : 20 min 32 sBit rate : 119 b/sCount of elements : 262Compression mode : LosslessStream size : 18.0 KiB (0%)Title : MexicoLanguage : SpanishDefault : NoForced : NoText #5ID : 7Format : ASSCodec ID : S_TEXT/ASSCodec ID/Info : Advanced Sub Station AlphaDuration : 21 min 50 sBit rate : 133 b/sCount of elements : 275Compression mode : LosslessStream size : 21.3 KiB (0%)Language : ItalianDefault : NoForced : NoText #6ID : 8Format : ASSCodec ID : S_TEXT/ASSCodec ID/Info : Advanced Sub Station AlphaDuration : 21 min 50 sBit rate : 122 b/sCount of elements : 266Compression mode : LosslessStream size : 19.6 KiB (0%)Language : PortugueseDefault : NoForced : NoSource:Cruncyroll WEB-DL
Tracker(s)
udp://tracker.opentrackr.org:1337/announceS: 1L: 0C: 0U: 45d, 1hr, 52min ago
udp://tracker.coppersurfer.tk:6969/announceScrape failedU: 90d, 9hr, 35min ago
udp://exodus.desync.com:6969/announce-
http://nyaa.tracker.wf:7777/announceS: 1L: 0C: 89U: 34d, 12hr, 54min ago
udp://open.stealth.si:80/announceS: 1L: 0C: 0U: 51d, 22hr, 14min ago
File Name (Size)[Arukoru] Boogiepop And Others - Episode 02 - Boogiepop And Others 2 [1080p x265 10bit WEB Multi-Sub AAC].mkv (214.3 MB)
DownloadClickNUpload | Go4Up | Jheberg | MultiUp | OpenLoad | Sendspace | ZippyShare
Encrypted DownloadDirect
Password:
Screenshots
screenshotscreenshotscreenshotscreenshotscreenshot
SubtitlesAll Attachments | eng [ASS], ara [ASS], spa [ASS], Mexico [spa, ASS], ita [ASS], por [ASS]



0 comment(s):
Add new comment
Name:
Comment Type:
Message:Please be aware of the following before commenting:
  • Anime Tosho provides a mirror of torrents and is not the source. Please understand that uploaders/submitters may not read comments here, so you should check the Source Links section near the top of this page if you wish to contact them
  • Expired links do NOT get reuploaded as files are deleted after we process them
  • Uploads are NOT instant, so please wait for them to be processed
  • The entire uploading process is done by a bot which does NOT read any comments, so asking for links will have no effect on when they show up
  • Critical comments are welcome, however note that statements such as "X is crap" or "Y sucks" are NOT criticisms and aren't useful to anyone. Please back such statements up with reasoning to be both informative and demonstrate that you aren't just some whiney kid.
Image Verification:

Our squiggly text game where the aim is to copy the image into the textbox. All characters are upper case, and there are no zeros (0) and ones (1) in the above image. Apparently bots aren't as good as humans at this game.
beta
Anime DDL+NZB mirror
Current Time: 16/06/2019 11:47



About/FAQs