[AnimeKaizoku] The Promised Neverland (720p BD x265 10bit Dual Audio) [dedsec]


This file has been deleted.
Source LinksNyaa | Torrent Download | Magnet Link (1.250 GB) | NZB
Date Submitted24/05/2020 13:28
Series (!)Yakusoku no Neverland
Comment[AnimeKaizoku] The Promised Neverland (720p BD x265 10bit Dual Audio) [dedsec]Yakusoku no NeverlandEnglish: The Promised NeverlandJapanese: 約束のネバーランドType: TVEpisodes: 12Status: Finished AiringAired: Jan 10, 2019 to Mar 29, 2019Premiered: Winter 2019Broadcast: Fridays at 00:55 (JST)Producers: Aniplex, Dentsu, A-1 Pictures, Fuji TV, Shueisha, CA-Cygames Anime FundLicensors: Aniplex of AmericaStudios: CloverWorksSource: MangaGenres: Sci-Fi, Mystery, Horror, Psychological, Thriller, ShounenDuration: 22 min per epRating: R – 17+ (violence & profanity)Type: Dual Audio, BDSynopsisSurrounded by a forest and a gated entrance, the Grace Field House is inhabited by orphans happily living together as one big family, looked after by their "Mama," Isabella. Although they are required to take tests daily, the children are free to spend their time as they see fit, usually playing outside, as long as they do not venture too far from the orphanage—a rule they are expected to follow no matter what. However, all good times must come to an end, as every few months, a child is adopted and sent to live with their new family... never to be heard from again. However, the three oldest siblings have their suspicions about what is actually happening at the orphanage, and they are about to discover the cruel fate that awaits the children living at Grace Field, including the twisted nature of their beloved Mama.Media InfoFormat : MatroskaFormat version : Version 4File size : 125 MiBDuration : 22 min 52 sOverall bit rate : 764 kb/sMovie name : [AnimeKaizoku] The Promised Neverland - 01 - 121045 (720p BD x265 10bit Dual Audio) [dedsec]Encoded date : UTC 2019-08-15 19:05:16Writing application : mkvmerge v19.0.0 ('Brave Captain') 64-bitWriting library : libebml v1.3.5 + libmatroska v1.4.8Cover : YesAttachments : cover.jpg / GANDHISANS-BOLD.OTF / GANDHISANS-BOLDITALIC.OTF / KOZUKAMINCHOPROSTRIPPEDV2H-BOLD.OTF / LOVELETTERTW.TTF / BLUEBRUSH-NORMAL.TTF / DOMINICAN.TTFVideoID : 1Format : HEVCFormat/Info : High Efficiency Video CodingFormat profile : Main 10@L4@MainCodec ID : V_MPEGH/ISO/HEVCDuration : 22 min 52 sBit rate : 513 kb/sWidth : 1 280 pixelsHeight : 720 pixelsDisplay aspect ratio : 16:9Frame rate mode : ConstantFrame rate : 23.976 (24000/1001) FPSColor space : YUVChroma subsampling : 4:2:0Bit depth : 10 bitsBits/(Pixel*Frame) : 0.023Stream size : 83.8 MiB (67%)Title : 720p BD x265 10bit [dedsec]Writing library : x265 2.5+13-ed2fd6c3b8d7:[Windows][GCC 7.1.0][64 bit] 10bitLanguage : JapaneseDefault : YesForced : NoAudio #1ID : 2Format : AAC LCFormat/Info : Advanced Audio Codec Low ComplexityCodec ID : A_AAC-2Duration : 22 min 48 sBit rate : 144 kb/sChannel(s) : 2 channelsChannel layout : L RSampling rate : 44.1 kHzFrame rate : 43.066 FPS (1024 SPF)Compression mode : LossyStream size : 23.3 MiB (19%)Title : English 2Ch AACLanguage : EnglishDefault : YesForced : NoAudio #2ID : 3Format : OpusCodec ID : A_OPUSDuration : 22 min 51 sBit rate : 94.8 kb/sChannel(s) : 2 channelsChannel layout : L RSampling rate : 48.0 kHzFrame rate : 50.001 FPS (960 SPF)Compression mode : LossyDelay relative to video : 12 msStream size : 15.5 MiB (12%)Title : Japanese 2Ch OPUSLanguage : JapaneseDefault : NoForced : NoText #1ID : 4Format : ASSCodec ID : S_TEXT/ASSCodec ID/Info : Advanced Sub Station AlphaDuration : 21 min 31 sBit rate : 2 869 b/sCount of elements : 3190Compression mode : LosslessStream size : 452 KiB (0%)Title : Signs & SongsLanguage : EnglishDefault : YesForced : NoText #2ID : 5Format : ASSCodec ID : S_TEXT/ASSCodec ID/Info : Advanced Sub Station AlphaDuration : 22 min 26 sBit rate : 2 840 b/sCount of elements : 3461Compression mode : LosslessStream size : 467 KiB (0%)Title : Full Subtitles [GJM]Language : EnglishDefault : NoForced : NoMenu00:00:00.000 : :Prologue00:00:56.974 : :OP00:02:27.022 : :Main Episode00:21:20.988 : :ED
Tracker(s)
udp://torrent.gresille.org:80/announce-
udp://tracker.opentrackr.org:1337/announceS: 1L: 17C: 0U: 41d, 38min ago
udp://tracker.coppersurfer.tk:6969/announceScrape failedU: 41d, 37min ago
udp://tracker.sktorrent.net:6969/announceScrape failedU: 40d, 7hr, 1min ago
udp://tracker.internetwarriors.net:1337/announce-
udp://exodus.desync.com:6969/announce-
udp://tracker.piratepublic.com:1337/announceScrape failedU: 40d, 7hr ago
http://tracker.mg64.net:6881/announceScrape failedU: 40d, 6hr, 58min ago
http://tracker2.itzmx.com:6961/announceS: 2L: 8C: 7U: 40d, 6hr, 56min ago
udp://eddie4.nl:6969/announceScrape failedU: 40d, 6hr, 55min ago
udp://tracker.leechers-paradise.org:6969/announceS: 0L: 10C: 4U: 40d, 14hr, 54min ago
udp://tracker4.piratux.com:6969/announce-
udp://zer0day.ch:1337/announce-
http://tracker1.wasabii.com.tw:6969/announceScrape failedU: 40d, 6hr, 54min ago
udp://explodie.org:6969/announceS: 1L: 3C: 0U: 40d, 6hr, 54min ago
http://tracker.skyts.net:6969/announceS: 3L: 7C: 9U: 40d, 6hr, 53min ago
udp://mgtracker.org:2710/announceScrape failedU: 40d, 6hr, 51min ago
udp://shadowshq.yi.org:6969/announceScrape failedU: 40d, 6hr, 50min ago
udp://shadowshq.eddie4.nl:6969/announceScrape failedU: 40d, 6hr, 49min ago
udp://tracker.ex.ua:80/announce-
http://tracker.tfile.me/announceScrape failedU: 40d, 6hr, 49min ago
udp://p4p.arenabg.com:1337/announceS: 3L: 7C: 8U: 40d, 6hr, 46min ago
udp://tracker.yoshi210.com:6969/announceScrape failedU: 40d, 6hr, 45min ago
http://tracker.anirena.com:80/announceS: 3L: 8C: 4U: 40d, 6hr, 45min ago
udp://tracker.flashtorrents.org:6969/announceScrape failedU: 40d, 6hr, 44min ago
udp://zer0day.to:1337/announceScrape failedU: 40d, 6hr, 43min ago
http://tracker2.wasabii.com.tw:6969/announceScrape failedU: 40d, 6hr, 41min ago
udp://tracker.mg64.net:6969/announceScrape failedU: 40d, 6hr, 34min ago
udp://94.23.183.33:6969/announceScrape failedU: 40d, 6hr, 29min ago
udp://tracker.ilibr.org:80/announce-
udp://tracker.grepler.com:6969/announceScrape failedU: 40d, 6hr, 28min ago
http://nyaa.tracker.wf:7777/announceS: 2L: 8C: 0U: 41d, 1hr, 9min ago
http://www.wareztorrent.com:80/announceScrape failedU: 40d, 6hr, 24min ago
udp://tracker.filetracker.pl:8089/announceScrape failedU: 40d, 6hr, 23min ago
udp://tracker.tiny-vps.com:6969/announceS: 1L: 9C: 10U: 40d, 8hr, 2min ago
http://tracker.tiny-vps.com:6969/announceScrape failedU: 40d, 6hr, 23min ago
udp://91.218.230.81:6969/announceScrape failedU: 40d, 6hr, 22min ago
udp://tracker.kuroy.me:5944/announceScrape failedU: 40d, 6hr, 19min ago
http://tracker.tvunderground.org.ru:3218/announceScrape failedU: 40d, 6hr, 15min ago
udp://bt.xxx-tracker.com:2710/announceScrape failedU: 40d, 6hr, 12min ago
udp://tracker.mg64.net:2710/announceScrape failedU: 40d, 6hr, 10min ago
udp://tracker.aletorrenty.pl:2710/announceScrape failedU: 40d, 6hr, 9min ago
udp://9.rarbg.com:2750/announceScrape failedU: 40d, 6hr, 7min ago
udp://open.stealth.si:80/announceS: 1L: 14C: 0U: 41d, 46min ago
udp://tracker.skyts.net:6969/announceScrape failedU: 40d, 6hr, 5min ago
udp://tracker.eddie4.nl:6969/announceScrape failedU: 40d, 6hr, 1min ago
udp://tracker2.indowebster.com:6969/announceScrape failedU: 40d, 6hr ago
udp://tracker.kicks-ass.net:80/announceScrape failedU: 40d, 6hr ago
https://www.wareztorrent.com/announceScrape failedU: 40d, 6hr ago
http://www.wareztorrent.com/announceScrape failedU: 40d, 6hr ago
http://tracker.yoshi210.com:6969/announceS: 5L: 6C: 10U: 40d, 5hr, 59min ago
https://104.28.17.69/announceScrape failedU: 40d, 7hr, 24min ago
http://tracker.bittor.pw:80/announceScrape failedU: 40d, 7hr, 14min ago
https://tracker.anirena.com:80/announceScrape failedU: 40d, 7hr, 10min ago
udp://9.rarbg.me:2910/announceS: 4L: 7C: 25U: 40d, 7hr, 6min ago
udp://9.rarbg.to:2980/announceScrape failedU: 40d, 7hr, 5min ago
Files
125.0 MB
100.1 MB
114.3 MB
95.94 MB
93.45 MB
101.2 MB
91.57 MB
106.8 MB
102.2 MB
104.8 MB
130.4 MB
114.2 MB
2.491 KB
SubtitlesAll Attachments



0 comment(s):
Add new comment
Name:
Comment Type:
Message:Please be aware of the following before commenting:
  • Anime Tosho provides a mirror of torrents and is not the source. Please understand that uploaders/submitters may not read comments here, so you should check the Source Links section near the top of this page if you wish to contact them
  • Expired links do NOT get reuploaded as files are deleted after we process them
  • Uploads are NOT instant, so please wait for them to be processed
  • The entire uploading process is done by a bot which does NOT read any comments, so asking for links will have no effect on when they show up
  • Critical comments are welcome, however note that statements such as "X is crap" or "Y sucks" are NOT criticisms and aren't useful to anyone. Please back such statements up with reasoning to be both informative and demonstrate that you aren't just some whiney kid.
Image Verification:

Our squiggly text game where the aim is to copy the image into the textbox. All characters are upper case, and there are no zeros (0) and ones (1) in the above image. Apparently bots aren't as good as humans at this game.
beta
Anime DDL+NZB mirror
Current Time: 04/07/2020 15:05



About/FAQs