[AnimeKaizoku] One Punch Man Season 1 720p 10bit HEVC Dual Audio [Lucy]


This file has been deleted.
Source LinksNyaa | Torrent Download | Magnet Link (1.766 GB) | NZB
Date Submitted24/05/2020 13:37
Series (!)One Punch Man
Comment[AnimeKaizoku] One Punch Man Season 1 720p 10bit HEVC Dual Audio [Lucy]English: One Punch ManJapanese: ワンパンマンType: TVEpisodes: 12Status: Finished AiringAired: Oct 5, 2015 to Dec 21, 2015Premiered: Fall 2015Broadcast: Mondays at 01:05 (JST)Producers: TV Tokyo, Bandai Visual, Lantis, Asatsu DK, Banpresto, Good Smile Company, Shueisha, East Japan Marketing & CommunicationsLicensors: Viz MediaStudios: MadhouseSource: Web mangaGenres: Action, Sci-Fi, Comedy, Parody, Super Power, Supernatural, SeinenDuration: 24 min per epRating: R – 17+ (violence & profanity)Type: Dual Audio, BDSynopsisThe seemingly ordinary and unimpressive Saitama has a rather unique hobby: being a hero. In order to pursue his childhood dream, he trained relentlessly for three years—and lost all of his hair in the process. Now, Saitama is incredibly powerful, so much so that no enemy is able to defeat him in battle. In fact, all it takes to defeat evildoers with just one punch has led to an unexpected problem—he is no longer able to enjoy the thrill of battling and has become quite bored. This all changes with the arrival of Genos, a 19-year-old cyborg, who wishes to be Saitama's disciple after seeing what he is capable of. Genos proposes that the two join the Hero Association in order to become certified heroes that will be recognized for their positive contributions to society, and Saitama, shocked that no one knows who he is, quickly agrees. And thus begins the story of One Punch Man, an action-comedy that follows an eccentric individual who longs to fight strong enemies that can hopefully give him the excitement he once felt and just maybe, he'll become popular in the process.Media InfoFormat : MatroskaFormat version : Version 4File size : 155 MiBDuration : 24 min 21 sOverall bit rate : 889 kb/sMovie name : [AnimeKaizoku] One-Punch Man - 01. The Strongest Man (720p Dual Audio) [Lucy]Encoded date : UTC 2019-11-21 19:44:53Writing application : mkvmerge v19.0.0 ('Brave Captain') 64-bitWriting library : libebml v1.3.5 + libmatroska v1.4.8 / Lavf57.72.101Cover : YesAttachments : cover.jpg / Brush Strokes_0.ttf / DISTInkingFxd-Bold.otf / Fela.otf / Franchise-Bold-hinted.ttf / khmerui.ttf / PTS75F_0.ttf / PTS76F.ttf / SubClearSans-Bold.ttfVideoID : 1Format : HEVCFormat/Info : High Efficiency Video CodingFormat profile : Format Range@L3.1@MainCodec ID : V_MPEGH/ISO/HEVCDuration : 24 min 21 sBit rate : 682 kb/sWidth : 1 280 pixelsHeight : 720 pixelsDisplay aspect ratio : 16:9Frame rate mode : ConstantFrame rate : 23.976 (23976/1000) FPSOriginal frame rate : 23.976 (24000/1001) FPSChroma subsampling : 4:4:4Bit depth : 10 bitsBits/(Pixel*Frame) : 0.031Stream size : 119 MiB (77%)Title : 1080p h.264Writing library : x265 2.3+42-7f77e66e30e7:[Windows][GCC 6.3.0][64 bit] 10bitLanguage : JapaneseDefault : YesForced : NoAudio #1ID : 2Format : AAC LCFormat/Info : Advanced Audio Codec Low ComplexityCodec ID : A_AAC-2Duration : 24 min 21 sBit rate : 96.0 kb/sChannel(s) : 2 channelsChannel layout : L RSampling rate : 48.0 kHzFrame rate : 46.875 FPS (1024 SPF)Compression mode : LossyStream size : 16.7 MiB (11%)Title : 2.0 AACWriting library : Lavc57.93.100 libfdk_aacLanguage : EnglishDefault : YesForced : NoAudio #2ID : 3Format : AAC LCFormat/Info : Advanced Audio Codec Low ComplexityCodec ID : A_AAC-2Duration : 24 min 21 sBit rate : 96.0 kb/sChannel(s) : 2 channelsChannel layout : L RSampling rate : 48.0 kHzFrame rate : 46.875 FPS (1024 SPF)Compression mode : LossyStream size : 16.7 MiB (11%)Title : 2.0 AACWriting library : Lavc57.93.100 libfdk_aacLanguage : JapaneseDefault : NoForced : NoText #1ID : 4Format : ASSCodec ID : S_TEXT/ASSCodec ID/Info : Advanced Sub Station AlphaDuration : 23 min 6 sBit rate : 283 b/sCount of elements : 370Compression mode : LosslessStream size : 47.9 KiB (0%)Title : Signs & SongsLanguage : EnglishDefault : YesForced : NoText #2ID : 5Format : ASSCodec ID : S_TEXT/ASSCodec ID/Info : Advanced Sub Station AlphaDuration : 24 min 0 sBit rate : 344 b/sCount of elements : 596Compression mode : LosslessStream size : 60.5 KiB (0%)Title : Full EnglishLanguage : EnglishDefault : NoForced : NoMenu00:00:00.000 : :Intro00:03:10.969 : :OP00:04:41.024 : :Part A00:14:39.785 : :Part B00:22:10.108 : :ED00:23:40.071 : :Outtro00:24:00.000 : :Next EpisodeThanks to the original uploader/encoder.Support the original creator.
Tracker(s)
udp://torrent.gresille.org:80/announce-
udp://tracker.opentrackr.org:1337/announceS: 3L: 32C: 0U: 41d, 18hr, 58min ago
udp://tracker.coppersurfer.tk:6969/announceScrape failedU: 41d, 18hr, 57min ago
udp://tracker.sktorrent.net:6969/announceScrape failedU: 41d, 1hr, 21min ago
udp://tracker.internetwarriors.net:1337/announce-
udp://exodus.desync.com:6969/announce-
udp://tracker.piratepublic.com:1337/announceScrape failedU: 41d, 1hr, 20min ago
http://tracker.mg64.net:6881/announceScrape failedU: 41d, 1hr, 19min ago
http://tracker2.itzmx.com:6961/announceS: 8L: 4C: 26U: 41d, 1hr, 17min ago
udp://eddie4.nl:6969/announceScrape failedU: 41d, 1hr, 15min ago
udp://tracker.leechers-paradise.org:6969/announceS: 6L: 2C: 15U: 41d, 2hr, 55min ago
udp://tracker4.piratux.com:6969/announce-
udp://zer0day.ch:1337/announce-
http://tracker1.wasabii.com.tw:6969/announceScrape failedU: 41d, 1hr, 14min ago
udp://explodie.org:6969/announceS: 3L: 1C: 0U: 41d, 1hr, 14min ago
http://tracker.skyts.net:6969/announceS: 7L: 4C: 38U: 41d, 1hr, 13min ago
udp://mgtracker.org:2710/announceScrape failedU: 41d, 1hr, 11min ago
udp://shadowshq.yi.org:6969/announceScrape failedU: 41d, 1hr, 10min ago
udp://shadowshq.eddie4.nl:6969/announceScrape failedU: 41d, 1hr, 9min ago
udp://tracker.ex.ua:80/announce-
http://tracker.tfile.me/announceScrape failedU: 41d, 1hr, 9min ago
udp://p4p.arenabg.com:1337/announceS: 7L: 5C: 19U: 41d, 1hr, 7min ago
udp://tracker.yoshi210.com:6969/announceScrape failedU: 41d, 1hr, 6min ago
http://tracker.anirena.com:80/announceS: 6L: 3C: 14U: 41d, 2hr, 45min ago
udp://tracker.flashtorrents.org:6969/announceScrape failedU: 41d, 1hr, 4min ago
udp://zer0day.to:1337/announceScrape failedU: 41d, 1hr, 3min ago
http://tracker2.wasabii.com.tw:6969/announceScrape failedU: 41d, 1hr, 1min ago
udp://tracker.mg64.net:6969/announceScrape failedU: 41d, 54min ago
udp://94.23.183.33:6969/announceScrape failedU: 41d, 49min ago
udp://tracker.ilibr.org:80/announce-
udp://tracker.grepler.com:6969/announceScrape failedU: 41d, 48min ago
http://nyaa.tracker.wf:7777/announceS: 1L: 30C: 0U: 41d, 19hr, 30min ago
http://www.wareztorrent.com:80/announceScrape failedU: 41d, 45min ago
udp://tracker.filetracker.pl:8089/announceScrape failedU: 41d, 43min ago
udp://tracker.tiny-vps.com:6969/announceS: 6L: 3C: 26U: 41d, 2hr, 23min ago
http://tracker.tiny-vps.com:6969/announceScrape failedU: 41d, 43min ago
udp://91.218.230.81:6969/announceScrape failedU: 41d, 42min ago
udp://tracker.kuroy.me:5944/announceScrape failedU: 41d, 39min ago
http://tracker.tvunderground.org.ru:3218/announceScrape failedU: 41d, 36min ago
udp://bt.xxx-tracker.com:2710/announceScrape failedU: 41d, 32min ago
udp://tracker.mg64.net:2710/announceScrape failedU: 41d, 31min ago
udp://tracker.aletorrenty.pl:2710/announceScrape failedU: 41d, 30min ago
udp://9.rarbg.com:2750/announceScrape failedU: 41d, 28min ago
udp://open.stealth.si:80/announceS: 2L: 33C: 0U: 41d, 19hr, 7min ago
udp://tracker.skyts.net:6969/announceScrape failedU: 41d, 25min ago
udp://tracker.eddie4.nl:6969/announceScrape failedU: 41d, 21min ago
udp://tracker2.indowebster.com:6969/announceScrape failedU: 41d, 20min ago
udp://tracker.kicks-ass.net:80/announceScrape failedU: 41d, 20min ago
https://www.wareztorrent.com/announceScrape failedU: 41d, 20min ago
http://www.wareztorrent.com/announceScrape failedU: 41d, 20min ago
http://tracker.yoshi210.com:6969/announceS: 4L: 4C: 24U: 41d, 19min ago
https://104.28.17.69/announceScrape failedU: 41d, 1hr, 44min ago
http://tracker.bittor.pw:80/announceScrape failedU: 41d, 1hr, 34min ago
https://tracker.anirena.com:80/announceScrape failedU: 41d, 1hr, 30min ago
udp://9.rarbg.me:2910/announceS: 6L: 4C: 79U: 41d, 1hr, 27min ago
udp://9.rarbg.to:2980/announceScrape failedU: 41d, 1hr, 26min ago
Files
154.9 MB
164.5 MB
145.7 MB
140.7 MB
129.4 MB
130.0 MB
143.9 MB
178.2 MB
172.2 MB
121.5 MB
149.0 MB
178.3 MB
2.491 KB
SubtitlesAll Attachments



0 comment(s):
Add new comment
Name:
Comment Type:
Message:Please be aware of the following before commenting:
  • Anime Tosho provides a mirror of torrents and is not the source. Please understand that uploaders/submitters may not read comments here, so you should check the Source Links section near the top of this page if you wish to contact them
  • Expired links do NOT get reuploaded as files are deleted after we process them
  • Uploads are NOT instant, so please wait for them to be processed
  • The entire uploading process is done by a bot which does NOT read any comments, so asking for links will have no effect on when they show up
  • Critical comments are welcome, however note that statements such as "X is crap" or "Y sucks" are NOT criticisms and aren't useful to anyone. Please back such statements up with reasoning to be both informative and demonstrate that you aren't just some whiney kid.
Image Verification:

Our squiggly text game where the aim is to copy the image into the textbox. All characters are upper case, and there are no zeros (0) and ones (1) in the above image. Apparently bots aren't as good as humans at this game.
beta
Anime DDL+NZB mirror
Current Time: 05/07/2020 09:26



About/FAQs