[Aeenald] Hamefura - 08 [1080p HEVC X265 10-bit] [AAC 2.0] [Otome Game no Hametsu Flag shika Nai Akuyaku Reijou ni Tensei shiteshimatta] [My Next Life as a Villainess]


Source LinksNyaa | Torrent Download | Magnet Link (429.9 MB) | NZB
Date Submitted25/05/2020 03:13
Series (!)Otome Game no Hametsu Flag shika Nai Akuyaku Reijou ni Tensei Shiteshimatta... - Episode 8 (of 12): I Became Engulfed by Desire...
CommentTitle: My Next Life as a Villainess: All Routes Lead to Doom!Other Title Names: Otome Game no Hametsu Flag shika Nai Akuyaku Reijou ni Tensei shiteshimatta; Otome Game no Hametsu Flag shika Nai Akuyaku Reijou ni Tensei shiteshimatta...; Hamefura; I Reincarnated into an Otome Game as a Villainess With Only Destruction Flagsā€¦; Destruction Flag Otome*Episode 8: "I Became Engulfed by Desire..."***Video Encode:** eenald**Audio Encode:** PuyaSubs! v2**Subs Source:** Bakemono Fansub & Erai-raws-Added OP/ED Karaoke from Bakemono Fansub-Included some typesetting-Added Chapters-Restyled fonts and minor revision of translation and typesetting-Retimed and ResampledEnjoy!---![ss](https://i.imgur.com/8wheHEE.png)![ss2](https://i.imgur.com/QxRtWnI.png)GeneralFormat : MatroskaFormat version : Version 4File size : 430 MiBDuration : 23 min 40 sOverall bit rate : 2 539 kb/sEncoded date : UTC 2020-05-25 02:59:39Writing application : mkvmerge v44.0.0 ('Domino') 64-bitWriting library : libebml v1.3.10 + libmatroska v1.5.2Attachments : Kane.ttf / KGSecondChancesSolid.ttf / IwaOMinPro-Bd-Fate.ttf / arial.ttf / CronosPro-SemiboldIt.ttf / CronosPro-Semibold.ttfVideoID : 1Format : HEVCFormat/Info : High Efficiency Video CodingFormat profile : Main 10@L4@MainCodec ID : V_MPEGH/ISO/HEVCDuration : 23 min 39 sBit rate : 2 396 kb/sWidth : 1 920 pixelsHeight : 1 080 pixelsDisplay aspect ratio : 16:9Frame rate mode : ConstantFrame rate : 23.976 (24000/1001) FPSColor space : YUVChroma subsampling : 4:2:0Bit depth : 10 bitsBits/(Pixel*Frame) : 0.048Stream size : 406 MiB (94%)Title : HEVC-10bitWriting library : x265 3.1.1+1-04b37fdfd2dc:[Windows][GCC 5.4.0][64 bit] 10bitEncoding settings : cpuid=1111039 / frame-threads=2 / numa-pools=4 / wpp / no-pmode / no-pme / no-psnr / no-ssim / log-level=2 / input-csp=1 / input-res=1920x1080 / interlace=0 / total-frames=0 / level-idc=0 / high-tier=1 / uhd-bd=0 / ref=4 / no-allow-non-conformance / no-repeat-headers / annexb / no-aud / no-hrd / info / hash=0 / no-temporal-layers / open-gop / min-keyint=23 / keyint=250 / gop-lookahead=0 / bframes=4 / b-adapt=2 / b-pyramid / bframe-bias=0 / rc-lookahead=25 / lookahead-slices=4 / scenecut=40 / radl=0 / no-splice / no-intra-refresh / ctu=64 / min-cu-size=8 / rect / no-amp / max-tu-size=32 / tu-inter-depth=1 / tu-intra-depth=1 / limit-tu=0 / rdoq-level=2 / dynamic-rd=0.00 / no-ssim-rd / signhide / no-tskip / nr-intra=0 / nr-inter=0 / no-constrained-intra / strong-intra-smoothing / max-merge=3 / limit-refs=3 / limit-modes / me=3 / subme=3 / merange=57 / temporal-mvp / weightp / no-weightb / no-analyze-src-pics / deblock=0:0 / sao / no-sao-non-deblock / rd=4 / no-early-skip / rskip / no-fast-intra / no-tskip-fast / no-cu-lossless / no-b-intra / no-splitrd-skip / rdpenalty=0 / psy-rd=2.00 / psy-rdoq=1.00 / no-rd-refine / no-lossless / cbqpoffs=0 / crqpoffs=0 / rc=crf / crf=20.4 / qcomp=0.60 / qpstep=4 / stats-write=0 / stats-read=0 / ipratio=1.40 / pbratio=1.30 / aq-mode=2 / aq-strength=1.00 / cutree / zone-count=0 / no-strict-cbr / qg-size=32 / no-rc-grain / qpmax=69 / qpmin=0 / no-const-vbv / sar=1 / overscan=0 / videoformat=5 / range=0 / colorprim=2 / transfer=2 / colormatrix=2 / chromaloc=0 / display-window=0cll=0,0 / min-luma=0 / max-luma=1023 / log2-max-poc-lsb=8 / vui-timing-info / vui-hrd-info / slices=1 / no-opt-qp-pps / no-opt-ref-list-length-pps / no-multi-pass-opt-rps / scenecut-bias=0.05 / no-opt-cu-delta-qp / no-aq-motion / no-hdr / no-hdr-opt / no-dhdr10-opt / no-idr-recovery-sei / analysis-reuse-level=5 / scale-factor=0 / refine-intra=0 / refine-inter=0 / refine-mv=0 / refine-ctu-distortion=0 / no-limit-sao / ctu-info=0 / no-lowpass-dct / refine-analysis-type=808528944 / copy-pic=1 / max-ausize-factor=1.0 / no-dynamic-refine / no-single-sei / no-hevc-aq / no-svt / no-field / qp-adaptation-range=1.00Language : JapaneseDefault : YesForced : NoColor range : LimitedAudioID : 2Format : AAC LCFormat/Info : Advanced Audio Codec Low ComplexityCodec ID : A_AAC-2Duration : 23 min 40 sBit rate : 128 kb/sChannel(s) : 2 channelsChannel layout : L RSampling rate : 44.1 kHzFrame rate : 43.066 FPS (1024 SPF)Compression mode : LossyStream size : 21.7 MiB (5%)Title : AAC2.0Language : JapaneseDefault : YesForced : NoTextID : 3Format : ASSCodec ID : S_TEXT/ASSCodec ID/Info : Advanced Sub Station AlphaDuration : 23 min 39 sBit rate : 1 065 b/sCount of elements : 1579Compression mode : LosslessStream size : 185 KiB (0%)Title : BakeSubs_engaldLanguage : EnglishDefault : YesForced : NoMenu00:00:00.000 : en:Prologue00:01:32.009 : en:Opening00:03:02.015 : en:First Part00:11:24.225 : en:Second Part00:19:45.559 : en:Ending00:21:15.858 : en:Epilogue
Tracker(s)
udp://tracker.opentrackr.org:1337/announceS: 31L: 1C: 643U: 13d, 11hr, 59min ago
udp://tracker.coppersurfer.tk:6969/announceScrape failedU: 12d, 19hr, 43min ago
udp://exodus.desync.com:6969/announce-
http://nyaa.tracker.wf:7777/announceS: 38L: 0C: 822U: 12d, 19hr, 7min ago
udp://open.stealth.si:80/announceS: 29L: 0C: 666U: 13d, 10hr, 58min ago
File Name (Size)Hamefura - 08 (1080p HEVC-10bit).mkv (429.9 MB)
DownloadAnonFiles | ClickNUpload | DropAPK | Free | MultiUp
  • BdUpload
  • DownAce
  • Fichier
  • FileCloud
  • Filerio
  • FilesCdn
  • IndiShare
  • Kbagi
  • Turbobit
  • UpToBox
  • Uppit
| SolidFiles | ZippyShare
Sendspace: Part1, Part2
Screenshots
screenshotscreenshotscreenshotscreenshotscreenshot
SubtitlesAll Attachments | BakeSubs_engald [eng, ASS]



0 comment(s):
Add new comment
Name:
Comment Type:
Message:Please be aware of the following before commenting:
  • Anime Tosho provides a mirror of torrents and is not the source. Please understand that uploaders/submitters may not read comments here, so you should check the Source Links section near the top of this page if you wish to contact them
  • Expired links do NOT get reuploaded as files are deleted after we process them
  • Uploads are NOT instant, so please wait for them to be processed
  • The entire uploading process is done by a bot which does NOT read any comments, so asking for links will have no effect on when they show up
  • Critical comments are welcome, however note that statements such as "X is crap" or "Y sucks" are NOT criticisms and aren't useful to anyone. Please back such statements up with reasoning to be both informative and demonstrate that you aren't just some whiney kid.
Image Verification:

Our squiggly text game where the aim is to copy the image into the textbox. All characters are upper case, and there are no zeros (0) and ones (1) in the above image. Apparently bots aren't as good as humans at this game.
beta
Anime DDL+NZB mirror
Current Time: 05/07/2020 11:15



About/FAQs