File Size437.1 MB (458,336,129 bytes)
DownloadAnonFiles | ClickNUpload | DropAPK | Free | MultiUp
  • BdUpload
  • DownAce
  • Fichier
  • FileCloud
  • Filerio
  • FilesCdn
  • IndiShare
  • Kbagi
  • Turbobit
  • UpToBox
  • Uppit
| SolidFiles | ZippyShare
Sendspace: Part1, Part2
HashesCRC32: 1F654919, MD5: 36357F61C398CC94DCC6C77B425C0640, SHA1: DBD5F88F525B44E9C908E97F7AC79F226CCDA0AB, SHA256: CDAFCF9086C768B619D07B12CF708716F258DF3E5D160BED17C8D94285A31CF2, ED2K: 4E7C36545A0AF37F139EFA373DBB814C
Screenshots
screenshotscreenshotscreenshotscreenshotscreenshot
SubtitlesAll Attachments | English [eng, ASS], Arabic [ara, ASS], French [fre, ASS], German [ger, ASS], Italian [ita, ASS], Portuguese [por, ASS], Russian [rus, ASS], Spanish1 [spa, ASS], Spanish2 [spa, ASS]
Additional Info
General
Unique ID                                : 200260317439585908280586435212833308516 (0x96A8BBF4B94C713E8D9D2738C695BF64)
Complete name                            : [zza] Mairimashita! Iruma-kun - 01 [1080p.x265].mkv
Format                                   : Matroska
Format version                           : Version 4
File size                                : 437 MiB
Duration                                 : 24 min 30 s
Overall bit rate                         : 2 494 kb/s
Movie name                               : [zza] Mairimashita! Iruma-kun - 01 - Iruma-kun from Demon School
Encoded date                             : UTC 2020-05-01 06:02:51
Writing application                      : mkvmerge v38.0.0 ('The Silent Type') 64-bit
Writing library                          : libebml v1.3.9 + libmatroska v1.5.2
Cover                                    : Yes
Attachments                              : cover.jpg

Video
ID                                       : 1
Format                                   : HEVC
Format/Info                              : High Efficiency Video Coding
Format profile                           : Main 10@L4@Main
Codec ID                                 : V_MPEGH/ISO/HEVC
Duration                                 : 24 min 30 s
Bit rate                                 : 2 297 kb/s
Width                                    : 1 920 pixels
Height                                   : 1 080 pixels
Display aspect ratio                     : 16:9
Frame rate mode                          : Constant
Frame rate                               : 23.976 (24000/1001) FPS
Color space                              : YUV
Chroma subsampling                       : 4:2:0
Bit depth                                : 10 bits
Bits/(Pixel*Frame)                       : 0.046
Stream size                              : 403 MiB (92%)
Language                                 : zza
Default                                  : Yes
Forced                                   : No
Color range                              : Limited

Audio
ID                                       : 2
Format                                   : E-AC-3
Format/Info                              : Enhanced AC-3
Commercial name                          : Dolby Digital Plus
Codec ID                                 : A_EAC3
Duration                                 : 24 min 30 s
Bit rate mode                            : Constant
Bit rate                                 : 192 kb/s
Channel(s)                               : 2 channels
Channel layout                           : L R
Sampling rate                            : 44.1 kHz
Frame rate                               : 28.711 FPS (1536 SPF)
Compression mode                         : Lossy
Stream size                              : 33.6 MiB (8%)
Language                                 : Japanese
Service kind                             : Complete Main
Default                                  : Yes
Forced                                   : No

Text #1
ID                                       : 3
Format                                   : ASS
Codec ID                                 : S_TEXT/ASS
Codec ID/Info                            : Advanced Sub Station Alpha
Duration                                 : 24 min 29 s
Bit rate                                 : 195 b/s
Count of elements                        : 483
Compression mode                         : Lossless
Stream size                              : 35.1 KiB (0%)
Title                                    : English
Language                                 : English
Default                                  : Yes
Forced                                   : No

Text #2
ID                                       : 4
Format                                   : ASS
Codec ID                                 : S_TEXT/ASS
Codec ID/Info                            : Advanced Sub Station Alpha
Duration                                 : 24 min 23 s
Bit rate                                 : 223 b/s
Count of elements                        : 482
Compression mode                         : Lossless
Stream size                              : 39.9 KiB (0%)
Title                                    : Arabic
Language                                 : Arabic
Default                                  : No
Forced                                   : No

Text #3
ID                                       : 5
Format                                   : ASS
Codec ID                                 : S_TEXT/ASS
Codec ID/Info                            : Advanced Sub Station Alpha
Duration                                 : 24 min 18 s
Bit rate                                 : 140 b/s
Count of elements                        : 349
Compression mode                         : Lossless
Stream size                              : 25.1 KiB (0%)
Title                                    : French
Language                                 : French
Default                                  : No
Forced                                   : No

Text #4
ID                                       : 6
Format                                   : ASS
Codec ID                                 : S_TEXT/ASS
Codec ID/Info                            : Advanced Sub Station Alpha
Duration                                 : 24 min 23 s
Bit rate                                 : 152 b/s
Count of elements                        : 379
Compression mode                         : Lossless
Stream size                              : 27.3 KiB (0%)
Title                                    : German
Language                                 : German
Default                                  : No
Forced                                   : No

Text #5
ID                                       : 7
Format                                   : ASS
Codec ID                                 : S_TEXT/ASS
Codec ID/Info                            : Advanced Sub Station Alpha
Duration                                 : 24 min 23 s
Bit rate                                 : 199 b/s
Count of elements                        : 475
Compression mode                         : Lossless
Stream size                              : 35.6 KiB (0%)
Title                                    : Italian
Language                                 : Italian
Default                                  : No
Forced                                   : No

Text #6
ID                                       : 8
Format                                   : ASS
Codec ID                                 : S_TEXT/ASS
Codec ID/Info                            : Advanced Sub Station Alpha
Duration                                 : 24 min 23 s
Bit rate                                 : 186 b/s
Count of elements                        : 489
Compression mode                         : Lossless
Stream size                              : 33.3 KiB (0%)
Title                                    : Portuguese
Language                                 : Portuguese
Default                                  : No
Forced                                   : No

Text #7
ID                                       : 9
Format                                   : ASS
Codec ID                                 : S_TEXT/ASS
Codec ID/Info                            : Advanced Sub Station Alpha
Duration                                 : 24 min 23 s
Bit rate                                 : 224 b/s
Count of elements                        : 469
Compression mode                         : Lossless
Stream size                              : 40.1 KiB (0%)
Title                                    : Russian
Language                                 : Russian
Default                                  : No
Forced                                   : No

Text #8
ID                                       : 10
Format                                   : ASS
Codec ID                                 : S_TEXT/ASS
Codec ID/Info                            : Advanced Sub Station Alpha
Duration                                 : 24 min 18 s
Bit rate                                 : 127 b/s
Count of elements                        : 374
Compression mode                         : Lossless
Stream size                              : 22.7 KiB (0%)
Title                                    : Spanish1
Language                                 : Spanish
Default                                  : No
Forced                                   : No

Text #9
ID                                       : 11
Format                                   : ASS
Codec ID                                 : S_TEXT/ASS
Codec ID/Info                            : Advanced Sub Station Alpha
Duration                                 : 24 min 18 s
Bit rate                                 : 124 b/s
Count of elements                        : 366
Compression mode                         : Lossless
Stream size                              : 22.2 KiB (0%)
Title                                    : Spanish2
Language                                 : Spanish
Default                                  : No
Forced                                   : No

Other Files in this Torrent
[zza] Mairimashita! Iruma-kun - 01 [1080p.x265].mkv
beta
Anime DDL+NZB mirror
Current Time: 21/01/2021 23:31



About/FAQs