File Size32.89 MB (34,488,706 bytes)
DownloadAnonFiles | ClickNUpload | DropAPK | Free | MultiUp
  • BdUpload
  • DownAce
  • Fichier
  • FileCloud
  • Filerio
  • FilesCdn
  • IndiShare
  • Kbagi
  • Turbobit
  • UpToBox
  • Uppit
| Sendspace | SolidFiles | ZippyShare
HashesCRC32: B4893E2C, MD5: A76502AFFFB457E0E77C266C6E696986, SHA1: 039D009F7B0312D8E8090D5C07186A03AD7390F9, SHA256: BF036A018057ED7F26C24BB4C6A99BB4D1F968A66329ABE38011FB6ED46FA072, ED2K: 9A301310B2AD5EA9610165B942F7059F
Screenshots
screenshotscreenshotscreenshotscreenshot
SubtitlesAll Attachments | English [eng, ASS], French [fre, ASS], German [ger, ASS], Italian [ita, ASS], Portuguese [por, ASS], Russian [rus, ASS], Spanish1 [spa, ASS], Spanish2 [spa, ASS]
Additional Info
General
Unique ID                                : 170503065568680859719241618600551110324 (0x8045B22A5C0679B964F4687215B5D6B4)
Complete name                            : [zza] Joshikausei - 07 [1080p.x265].mkv
Format                                   : Matroska
Format version                           : Version 4
File size                                : 32.9 MiB
Duration                                 : 3 min 30 s
Overall bit rate                         : 1 313 kb/s
Movie name                               : [zza] Joshikausei - 07 - The High School Girl and the Foggy Window
Encoded date                             : UTC 2020-08-01 07:34:28
Writing application                      : mkvmerge v38.0.0 ('The Silent Type') 64-bit
Writing library                          : libebml v1.3.9 + libmatroska v1.5.2
Cover                                    : Yes
Attachments                              : cover.jpg

Video
ID                                       : 1
Format                                   : HEVC
Format/Info                              : High Efficiency Video Coding
Format profile                           : Main 10@L4@Main
Codec ID                                 : V_MPEGH/ISO/HEVC
Duration                                 : 3 min 30 s
Bit rate                                 : 1 114 kb/s
Width                                    : 1 920 pixels
Height                                   : 1 080 pixels
Display aspect ratio                     : 16:9
Frame rate mode                          : Constant
Frame rate                               : 23.976 (23976/1000) FPS
Original frame rate                      : 23.976 (24000/1001) FPS
Color space                              : YUV
Chroma subsampling                       : 4:2:0
Bit depth                                : 10 bits
Bits/(Pixel*Frame)                       : 0.022
Stream size                              : 27.9 MiB (85%)
Language                                 : zza
Default                                  : Yes
Forced                                   : No
Color range                              : Limited

Audio
ID                                       : 2
Format                                   : E-AC-3
Format/Info                              : Enhanced AC-3
Commercial name                          : Dolby Digital Plus
Codec ID                                 : A_EAC3
Duration                                 : 3 min 30 s
Bit rate mode                            : Constant
Bit rate                                 : 192 kb/s
Channel(s)                               : 2 channels
Channel layout                           : L R
Sampling rate                            : 44.1 kHz
Frame rate                               : 28.711 FPS (1536 SPF)
Compression mode                         : Lossy
Stream size                              : 4.81 MiB (15%)
Language                                 : Japanese
Service kind                             : Complete Main
Default                                  : Yes
Forced                                   : No

Text #1
ID                                       : 3
Format                                   : ASS
Codec ID                                 : S_TEXT/ASS
Codec ID/Info                            : Advanced Sub Station Alpha
Duration                                 : 2 min 51 s
Bit rate                                 : 49 b/s
Count of elements                        : 10
Compression mode                         : Lossless
Stream size                              : 1.03 KiB (0%)
Title                                    : English
Language                                 : English
Default                                  : Yes
Forced                                   : No

Text #2
ID                                       : 4
Format                                   : ASS
Codec ID                                 : S_TEXT/ASS
Codec ID/Info                            : Advanced Sub Station Alpha
Duration                                 : 2 min 48 s
Bit rate                                 : 18 b/s
Count of elements                        : 6
Compression mode                         : Lossless
Stream size                              : 388 Bytes (0%)
Title                                    : French
Language                                 : French
Default                                  : No
Forced                                   : No

Text #3
ID                                       : 5
Format                                   : ASS
Codec ID                                 : S_TEXT/ASS
Codec ID/Info                            : Advanced Sub Station Alpha
Duration                                 : 2 min 51 s
Bit rate                                 : 50 b/s
Count of elements                        : 10
Compression mode                         : Lossless
Stream size                              : 1.06 KiB (0%)
Title                                    : German
Language                                 : German
Default                                  : No
Forced                                   : No

Text #4
ID                                       : 6
Format                                   : ASS
Codec ID                                 : S_TEXT/ASS
Codec ID/Info                            : Advanced Sub Station Alpha
Duration                                 : 2 min 51 s
Bit rate                                 : 50 b/s
Count of elements                        : 10
Compression mode                         : Lossless
Stream size                              : 1.05 KiB (0%)
Title                                    : Italian
Language                                 : Italian
Default                                  : No
Forced                                   : No

Text #5
ID                                       : 7
Format                                   : ASS
Codec ID                                 : S_TEXT/ASS
Codec ID/Info                            : Advanced Sub Station Alpha
Duration                                 : 2 min 51 s
Bit rate                                 : 28 b/s
Count of elements                        : 9
Compression mode                         : Lossless
Stream size                              : 622 Bytes (0%)
Title                                    : Portuguese
Language                                 : Portuguese
Default                                  : No
Forced                                   : No

Text #6
ID                                       : 8
Format                                   : ASS
Codec ID                                 : S_TEXT/ASS
Codec ID/Info                            : Advanced Sub Station Alpha
Duration                                 : 2 min 51 s
Bit rate                                 : 57 b/s
Count of elements                        : 10
Compression mode                         : Lossless
Stream size                              : 1.21 KiB (0%)
Title                                    : Russian
Language                                 : Russian
Default                                  : No
Forced                                   : No

Text #7
ID                                       : 9
Format                                   : ASS
Codec ID                                 : S_TEXT/ASS
Codec ID/Info                            : Advanced Sub Station Alpha
Duration                                 : 2 min 51 s
Bit rate                                 : 24 b/s
Count of elements                        : 8
Compression mode                         : Lossless
Stream size                              : 524 Bytes (0%)
Title                                    : Spanish1
Language                                 : Spanish
Default                                  : No
Forced                                   : No

Text #8
ID                                       : 10
Format                                   : ASS
Codec ID                                 : S_TEXT/ASS
Codec ID/Info                            : Advanced Sub Station Alpha
Duration                                 : 2 min 51 s
Bit rate                                 : 24 b/s
Count of elements                        : 8
Compression mode                         : Lossless
Stream size                              : 518 Bytes (0%)
Title                                    : Spanish2
Language                                 : Spanish
Default                                  : No
Forced                                   : No

Other Files in this Torrent
[zza] Joshikausei - 07 [1080p.x265].mkv
beta
Anime DDL+NZB mirror
Current Time: 25/09/2020 22:39



About/FAQs