File Size342.1 MB (358,681,201 bytes)
DownloadClickNUpload | DiskoKosmiko | Go4Up | Jheberg | MultiUp | OpenLoad | SolidFiles | ZippyShare
Sendspace: Part1, Part2
Encrypted DownloadDirect
Password:
HashesCRC32: 678C5BF1, MD5: D5EF7623D717FA12068785C5A2E4BB97, SHA1: 2A4D170868513987F6BBE2EBDDACE7B6123A8022, SHA256: 93A854D6030FD748FD0CB3C2DD8D5B66E5913F0FEA98D0C4E7CF0120ADAFA584, ED2K: CDEE1B406D986417BA5C82BCBEDD9EE0
Screenshots
screenshotscreenshotscreenshotscreenshotscreenshot
SubtitlesAll Attachments | eng [ASS], enm [eng, ASS]
Additional Info
General
Unique ID                                : 194252458683958395564158715520857153782 (0x9223A9A661A067E1CF7453D6203820F6)
Complete name                            : [ZOYA] Sirius the Jaeger - 09 [678C5BF1].mkv
Format                                   : Matroska
Format version                           : Version 4 / Version 2
File size                                : 342 MiB
Duration                                 : 24 min 0 s
Overall bit rate                         : 1 993 kb/s
Encoded date                             : UTC 2018-09-07 15:40:06
Writing application                      : mkvmerge v25.0.0 ('Prog Noir') 64-bit
Writing library                          : libebml v1.3.6 + libmatroska v1.4.9

Video
ID                                       : 1
Format                                   : AVC
Format/Info                              : Advanced Video Codec
Format profile                           : Baseline@L3.1
Format settings, CABAC                   : No
Format settings, ReFrames                : 2 frames
Format settings, GOP                     : M=1, N=30
Codec ID                                 : V_MPEG4/ISO/AVC
Duration                                 : 24 min 0 s
Bit rate                                 : 1 794 kb/s
Width                                    : 1 280 pixels
Height                                   : 720 pixels
Display aspect ratio                     : 16:9
Frame rate mode                          : Constant
Frame rate                               : 29.970 (29970/1000) FPS
Color space                              : YUV
Chroma subsampling                       : 4:2:0
Bit depth                                : 8 bits
Scan type                                : Progressive
Bits/(Pixel*Frame)                       : 0.065
Stream size                              : 308 MiB (90%)
Default                                  : Yes
Forced                                   : No

Audio
ID                                       : 2
Format                                   : AAC
Format/Info                              : Advanced Audio Codec
Format profile                           : LC
Codec ID                                 : A_AAC
Duration                                 : 24 min 0 s
Bit rate                                 : 192 kb/s
Channel(s)                               : 2 channels
Channel positions                        : Front: L R
Sampling rate                            : 48.0 kHz
Frame rate                               : 46.875 FPS (1024 spf)
Compression mode                         : Lossy
Stream size                              : 33.6 MiB (10%)
Language                                 : Japanese
Default                                  : Yes
Forced                                   : No

Text #1
ID                                       : 3
Format                                   : ASS
Codec ID                                 : S_TEXT/ASS
Codec ID/Info                            : Advanced Sub Station Alpha
Duration                                 : 23 min 45 s
Bit rate                                 : 99 b/s
Count of elements                        : 363
Compression mode                         : Lossless
Stream size                              : 17.3 KiB (0%)
Language                                 : English
Default                                  : Yes
Forced                                   : No

Text #2
ID                                       : 4
Format                                   : ASS
Codec ID                                 : S_TEXT/ASS
Codec ID/Info                            : Advanced Sub Station Alpha
Duration                                 : 23 min 45 s
Bit rate                                 : 77 b/s
Count of elements                        : 287
Compression mode                         : Lossless
Stream size                              : 13.5 KiB (0%)
Title                                    : enm
Language                                 : English
Default                                  : No
Forced                                   : No

Menu
00:00:00.000                             : en:intro
00:01:13.072                             : en:OP
00:02:56.079                             : en:Episode Part A
00:09:10.081                             : en:Episode Part B
00:21:43.050                             : en:ED
00:22:09.060                             : en:Epilouge
00:23:40.050                             : en:Preview
beta
Anime DDL+NZB mirror
Current Time: 17/10/2019 14:18



About/FAQs