[ZG] Doraemon (2005) Episode 371 (720p).mkv


File Size356.5 MB (373,843,013 bytes)
DownloadClickNUpload | DailyUploads | DownloadGG | GoFile | KrakenFiles | MdiaLoad | MultiUp
  • BdUpload
  • DownAce
  • Fichier
  • FileCloud
  • Filerio
  • FilesCdn
  • IndiShare
  • Kbagi
  • Turbobit
  • UpToBox
  • Uppit
| Uppit
HashesCRC32: 7F7E16BB, MD5: 03B3F311C17BE222F6B88D7422C0C04A, SHA1: EC560C6D104B1D5C794FBB3D60FE2ACA9493AD8B, SHA256: 118C500B4B7DA94A6102328D536714F3CE6532B8D0C0AC3A7818CDAAB12A7B50, ED2K: F322F89A6AFEFBB02FCB8E1DABFC907A
Screenshots
screenshotscreenshotscreenshotscreenshotscreenshot
SubtitlesAll Attachments | eng [ASS]
Additional Info
General
Unique ID                                : 120958926755775132922992460702073764089 (0x5AFFD787482EE20C9207F611D84C38F9)
Complete name                            : [ZG] Doraemon (2005) Episode 371 (720p).mkv
Format                                   : Matroska
Format version                           : Version 4
File size                                : 357 MiB
Duration                                 : 22 min 7 s
Overall bit rate                         : 2 252 kb/s
Frame rate                               : 23.976 FPS
Encoded date                             : 2024-04-01 20:33:20 UTC
Writing application                      : mkvmerge v64.0.0 ('Willows') 64-bit
Writing library                          : libebml v1.4.2 + libmatroska v1.6.4
Attachments                              : FOT-SeuratProN-B.otf / MONTARA-GOTHIC.OTF / ANNA.ttf

Video
ID                                       : 1
Format                                   : AVC
Format/Info                              : Advanced Video Codec
Format profile                           : High@L5
Format settings                          : CABAC / 16 Ref Frames
Format settings, CABAC                   : Yes
Format settings, Reference frames        : 16 frames
Codec ID                                 : V_MPEG4/ISO/AVC
Duration                                 : 22 min 7 s
Bit rate                                 : 2 024 kb/s
Width                                    : 1 280 pixels
Height                                   : 720 pixels
Display aspect ratio                     : 16:9
Frame rate mode                          : Constant
Frame rate                               : 23.976 (24000/1001) FPS
Color space                              : YUV
Chroma subsampling                       : 4:2:0
Bit depth                                : 8 bits
Scan type                                : Progressive
Bits/(Pixel*Frame)                       : 0.092
Stream size                              : 320 MiB (90%)
Writing library                          : x264 core 146
Encoding settings                        : opencl=1 / cabac=1 / ref=16 / deblock=1:1:1 / analyse=0x3:0x133 / me=tesa / subme=11 / psy=1 / psy_rd=0.40:0.00 / mixed_ref=1 / me_range=24 / chroma_me=1 / trellis=2 / 8x8dct=1 / cqm=0 / deadzone=21,11 / fast_pskip=0 / chroma_qp_offset=-2 / threads=12 / lookahead_threads=3 / sliced_threads=0 / nr=0 / decimate=1 / interlaced=0 / bluray_compat=0 / constrained_intra=0 / bframes=16 / b_pyramid=2 / b_adapt=2 / b_bias=0 / direct=3 / weightb=1 / open_gop=0 / weightp=2 / keyint=250 / keyint_min=23 / scenecut=40 / intra_refresh=0 / rc_lookahead=60 / rc=crf / mbtree=1 / crf=19.8 / qcomp=0.60 / qpmin=0 / qpmax=69 / qpstep=4 / ip_ratio=1.40 / aq=1:0.00
Language                                 : Japanese
Default                                  : Yes
Forced                                   : No

Audio
ID                                       : 2
Format                                   : AAC LC
Format/Info                              : Advanced Audio Codec Low Complexity
Codec ID                                 : A_AAC-2
Duration                                 : 22 min 7 s
Bit rate                                 : 192 kb/s
Channel(s)                               : 2 channels
Channel layout                           : L R
Sampling rate                            : 44.1 kHz
Frame rate                               : 43.066 FPS (1024 SPF)
Compression mode                         : Lossy
Stream size                              : 30.4 MiB (9%)
Language                                 : Japanese
Default                                  : Yes
Forced                                   : No

Text
ID                                       : 3
Format                                   : ASS
Codec ID                                 : S_TEXT/ASS
Codec ID/Info                            : Advanced Sub Station Alpha
Duration                                 : 22 min 4 s
Bit rate                                 : 115 b/s
Frame rate                               : 0.246 FPS
Count of elements                        : 326
Compression mode                         : Lossless
Stream size                              : 18.6 KiB (0%)
Language                                 : English
Default                                  : Yes
Forced                                   : No
beta
Anime DDL+NZB mirror
Current Time: 28/05/2024 07:06



About/FAQs

Discord