File Size383.0 MB (401,557,983 bytes)
DownloadAnonFiles | ClickNUpload | DownloadGG | MultiUp
  • BdUpload
  • DownAce
  • Fichier
  • FileCloud
  • Filerio
  • FilesCdn
  • IndiShare
  • Kbagi
  • Turbobit
  • UpToBox
  • Uppit
| ZippyShare
HashesCRC32: 1589150B, MD5: C3300379E2F8EF0C87CBB8512177779C, SHA1: BC2624EDAB78348109E0375A76F79A849061AAE4, SHA256: 7B0B201EE360E4541C10B95E39E4FF8FD3E87371E069751218F5B097C728ECEA, ED2K: CAE4960220644B3A2400727532FDB513
Screenshots
screenshotscreenshotscreenshotscreenshotscreenshot
SubtitlesAll Attachments | eng [ASS]
Additional Info
General
Unique ID                                : 219728050837542374700938166236879349278 (0xA54E155160E11B6D830810A7A2A5661E)
Complete name                            : [ZG] Doraemon (2005) Episode 231 (720p).mkv
Format                                   : Matroska
Format version                           : Version 4
File size                                : 383 MiB
Duration                                 : 21 min 29 s
Overall bit rate                         : 2 490 kb/s
Encoded date                             : UTC 2022-03-23 20:21:26
Writing application                      : mkvmerge v64.0.0 ('Willows') 64-bit
Writing library                          : libebml v1.4.2 + libmatroska v1.6.4
Attachments                              : Montara-Gothic.otf / ANNA.ttf

Video
ID                                       : 1
Format                                   : AVC
Format/Info                              : Advanced Video Codec
Format profile                           : Baseline@L3.1
Format settings                          : 1 Ref Frames
Format settings, CABAC                   : No
Format settings, Reference frames        : 1 frame
Codec ID                                 : V_MPEG4/ISO/AVC
Duration                                 : 21 min 29 s
Bit rate                                 : 2 295 kb/s
Width                                    : 1 280 pixels
Height                                   : 720 pixels
Display aspect ratio                     : 16:9
Frame rate mode                          : Constant
Frame rate                               : 23.976 (23976/1000) FPS
Color space                              : YUV
Chroma subsampling                       : 4:2:0
Bit depth                                : 8 bits
Scan type                                : Progressive
Bits/(Pixel*Frame)                       : 0.104
Stream size                              : 353 MiB (92%)
Language                                 : Japanese
Default                                  : Yes
Forced                                   : No

Audio
ID                                       : 2
Format                                   : MPEG Audio
Format version                           : Version 1
Format profile                           : Layer 3
Format settings                          : Joint stereo / MS Stereo
Codec ID                                 : A_MPEG/L3
Codec ID/Hint                            : MP3
Duration                                 : 21 min 29 s
Bit rate mode                            : Constant
Bit rate                                 : 192 kb/s
Channel(s)                               : 2 channels
Sampling rate                            : 44.1 kHz
Frame rate                               : 38.281 FPS (1152 SPF)
Compression mode                         : Lossy
Stream size                              : 29.5 MiB (8%)
Writing library                          : LAME3.98.2
Language                                 : Japanese
Default                                  : Yes
Forced                                   : No

Text
ID                                       : 3
Format                                   : ASS
Codec ID                                 : S_TEXT/ASS
Codec ID/Info                            : Advanced Sub Station Alpha
Duration                                 : 21 min 26 s
Bit rate                                 : 145 b/s
Count of elements                        : 381
Compression mode                         : Lossless
Stream size                              : 22.9 KiB (0%)
Language                                 : English
Default                                  : Yes
Forced                                   : No
beta
Anime DDL+NZB mirror
Current Time: 24/06/2024 12:18



About/FAQs

Discord