File Size525.0 MB (550,545,491 bytes)
DownloadClickNUpload | DailyUploads | DownloadGG | GoFile | KrakenFiles | MdiaLoad | Uppit
MultiUp: Part1
  • BdUpload
  • DownAce
  • Fichier
  • FileCloud
  • Filerio
  • FilesCdn
  • IndiShare
  • Kbagi
  • Turbobit
  • UpToBox
  • Uppit
, Part2
  • BdUpload
  • DownAce
  • Fichier
  • FileCloud
  • Filerio
  • FilesCdn
  • IndiShare
  • Kbagi
  • Turbobit
  • UpToBox
  • Uppit
HashesCRC32: CF1AA3C5, MD5: 28B580A061901D19307AAF15FD98B7E1, SHA1: 54A6E31E0743E0E8D0A7505862FB635C26546CE7, SHA256: B68649930A36047FB6C08C60CB8943B388695FA6590EF910A961650B7539AAB9, ED2K: D247F0BC65B1BA4B3FE390812C21FC9E
Screenshots
screenshotscreenshotscreenshotscreenshotscreenshot
SubtitlesAll Attachments | eng [ASS]
Additional Info
General
Unique ID                                : 192036595081453658880211438641175158498 (0x9078E723B44A943DF35A231697095EE2)
Complete name                            : [ZG] Doraemon (2005) Episode 006 (720p).mkv
Format                                   : Matroska
Format version                           : Version 4
File size                                : 525 MiB
Duration                                 : 22 min 45 s
Overall bit rate                         : 3 227 kb/s
Frame rate                               : 23.976 FPS
Encoded date                             : 2024-03-15 20:28:16 UTC
Writing application                      : mkvmerge v64.0.0 ('Willows') 64-bit
Writing library                          : libebml v1.4.2 + libmatroska v1.6.4
Attachments                              : aquafont.ttf / FOT-SeuratProN-B.otf / MONTARA-GOTHIC.OTF / Pooh.ttf

Video
ID                                       : 1
Format                                   : AVC
Format/Info                              : Advanced Video Codec
Format profile                           : Constrained Baseline@L3.1
Format settings                          : 1 Ref Frames
Format settings, CABAC                   : No
Format settings, Reference frames        : 1 frame
Codec ID                                 : V_MPEG4/ISO/AVC
Duration                                 : 22 min 45 s
Bit rate                                 : 3 007 kb/s
Width                                    : 1 280 pixels
Height                                   : 720 pixels
Display aspect ratio                     : 16:9
Frame rate mode                          : Constant
Frame rate                               : 23.976 (23976/1000) FPS
Color space                              : YUV
Chroma subsampling                       : 4:2:0
Bit depth                                : 8 bits
Scan type                                : Progressive
Bits/(Pixel*Frame)                       : 0.136
Stream size                              : 489 MiB (93%)
Language                                 : Japanese
Default                                  : Yes
Forced                                   : No

Audio
ID                                       : 2
Format                                   : AAC LC
Format/Info                              : Advanced Audio Codec Low Complexity
Codec ID                                 : A_AAC-2
Duration                                 : 22 min 44 s
Bit rate                                 : 152 kb/s
Channel(s)                               : 2 channels
Channel layout                           : L R
Sampling rate                            : 44.1 kHz
Frame rate                               : 43.066 FPS (1024 SPF)
Compression mode                         : Lossy
Stream size                              : 24.7 MiB (5%)
Language                                 : Japanese
Default                                  : Yes
Forced                                   : No

Text
ID                                       : 3
Format                                   : ASS
Codec ID                                 : S_TEXT/ASS
Codec ID/Info                            : Advanced Sub Station Alpha
Duration                                 : 22 min 39 s
Bit rate                                 : 116 b/s
Frame rate                               : 0.231 FPS
Count of elements                        : 314
Compression mode                         : Lossless
Stream size                              : 19.4 KiB (0%)
Language                                 : English
Default                                  : Yes
Forced                                   : No
beta
Anime DDL+NZB mirror
Current Time: 13/07/2024 13:32



About/FAQs

Discord