File Size314.1 MB (329,359,082 bytes)
DownloadClickNUpload | Go4Up | Jheberg | MultiUp
  • BdUpload
  • DownAce
  • Fichier
  • FileCloud
  • Filerio
  • FilesCdn
  • IndiShare
  • Kbagi
  • Solidfiles
  • Turbobit
  • UpToBox
  • Uppit
| OpenLoad | ZippyShare
Sendspace: Part1, Part2
HashesCRC32: D2123411, MD5: FCA0A0F34D6FC2FDB7E6AD6D979281CF, SHA1: 29F70F90B3643B9B87172FA17B34E7F9B2F51669, SHA256: 7B0CD4990F24DC00CFF4E4ECC2F775361043482B1DEE73E75209FF029C1CA39A, ED2K: 173FF17D1439072EC74436DFC6EF1BDE
Screenshots
screenshotscreenshotscreenshotscreenshotscreenshot
SubtitlesAll Attachments | [KuroUma] [eng, ASS]
Additional Info
General
Unique ID                                : 246999828606864475926492228862743862421 (0xB9D26FC625DF0168D7C8DCC00EA2DC95)
Complete name                            : Yuragi-sou no Yuuna-san - OVA 03 (Uncen) [KuroUma] [BD Hi444 720p MKV FLAC] [D2123411].mkv
Format                                   : Matroska
Format version                           : Version 4
File size                                : 314 MiB
Duration                                 : 21 min 12 s
Overall bit rate mode                    : Variable
Overall bit rate                         : 2 071 kb/s
Movie name                               : [KuroUma] Yuragi-sou no Yuuna-san - OVA 03 (Uncen)
Encoded date                             : UTC 2019-03-23 04:46:00
Writing application                      : mkvmerge v30.1.0 ('Forever And More') 32-bit
Writing library                          : libebml v1.3.6 + libmatroska v1.4.9
Attachments                              : CatCafe.ttf / ConferenceD.ttf / Overlock-Bold.ttf / Overlock-BoldItalic.ttf

Video
ID                                       : 1
Format                                   : AVC
Format/Info                              : Advanced Video Codec
Format profile                           : High 4:4:4 Predictive@L5
Format settings                          : CABAC / 16 Ref Frames
Format settings, CABAC                   : Yes
Format settings, ReFrames                : 16 frames
Codec ID                                 : V_MPEG4/ISO/AVC
Duration                                 : 21 min 12 s
Bit rate                                 : 1 390 kb/s
Width                                    : 1 280 pixels
Height                                   : 720 pixels
Display aspect ratio                     : 16:9
Frame rate mode                          : Constant
Frame rate                               : 23.976 (24000/1001) FPS
Chroma subsampling                       : 4:4:4
Bit depth                                : 10 bits
Scan type                                : Progressive
Bits/(Pixel*Frame)                       : 0.063
Stream size                              : 211 MiB (67%)
Title                                    : High 4:4:4 Predictive@L5 [KuroUma]
Writing library                          : x264 core 157 r2935 545de2f
Encoding settings                        : cabac=1 / ref=16 / deblock=1:1:0 / analyse=0x1:0x131 / me=umh / subme=10 / psy=1 / psy_rd=0.85:0.05 / mixed_ref=1 / me_range=48 / chroma_me=1 / trellis=2 / 8x8dct=0 / cqm=0 / deadzone=21,11 / fast_pskip=1 / chroma_qp_offset=3 / threads=3 / lookahead_threads=1 / sliced_threads=0 / nr=0 / decimate=1 / interlaced=0 / bluray_compat=0 / constrained_intra=0 / bframes=16 / b_pyramid=2 / b_adapt=2 / b_bias=0 / direct=3 / weightb=1 / open_gop=0 / weightp=2 / keyint=250 / keyint_min=23 / scenecut=40 / intra_refresh=0 / rc_lookahead=60 / rc=crf / mbtree=1 / crf=15.0 / qcomp=0.70 / qpmin=0 / qpmax=81 / qpstep=4 / ip_ratio=1.40 / aq=3:0.85
Language                                 : Japanese
Default                                  : Yes
Forced                                   : No

Audio
ID                                       : 2
Format                                   : FLAC
Format/Info                              : Free Lossless Audio Codec
Codec ID                                 : A_FLAC
Duration                                 : 21 min 12 s
Bit rate mode                            : Variable
Bit rate                                 : 677 kb/s
Channel(s)                               : 2 channels
Channel layout                           : L R
Sampling rate                            : 48.0 kHz
Frame rate                               : 11.719 FPS (4096 SPF)
Bit depth                                : 16 bits
Compression mode                         : Lossless
Stream size                              : 103 MiB (33%)
Title                                    : FLAC - Stereo 2.0ch [Jpn]
Writing library                          : libFLAC 1.2.1 (UTC 2007-09-17)
Language                                 : Japanese
Default                                  : Yes
Forced                                   : No

Text
ID                                       : 3
Format                                   : ASS
Codec ID                                 : S_TEXT/ASS
Codec ID/Info                            : Advanced Sub Station Alpha
Duration                                 : 19 min 37 s
Bit rate                                 : 154 b/s
Count of elements                        : 335
Compression mode                         : Lossless
Stream size                              : 22.2 KiB (0%)
Title                                    : [KuroUma]
Language                                 : English
Default                                  : Yes
Forced                                   : No

Menu
00:00:00.000                             : en:Intro
00:02:27.021                             : en:Part A
00:09:00.957                             : en:Eye-Catch
00:09:05.962                             : en:Part B
00:19:40.971                             : en:End
beta
Anime DDL+NZB mirror
Current Time: 28/03/2020 21:02



About/FAQs