File Size299.4 MB (313,892,503 bytes)
DownloadClickNUpload | DiskoKosmiko | Go4Up | Jheberg | MultiUp | OpenLoad | Sendspace | SolidFiles | ZippyShare
Encrypted DownloadDirect
Password:
HashesCRC32: D3C67DD8, MD5: 81B970C09214992120D7151500C0DBBF, SHA1: 2B1EDEEC3BF747207D8649AC4261FD21713E3E5D, SHA256: 51412D8BC0239304A07669F7E6BB8DC1F376A0659DCDA61C6313294307AE0238, ED2K: 6995EF1DC6676FDA3D3125EB8F0A7690
Screenshots
screenshotscreenshotscreenshotscreenshotscreenshot
SubtitlesAll Attachments | und [ASS]
Additional Info
General
Unique ID                                : 44534365270073440341868039369007951489 (0x218101BB34CFA1511FEC133274F9EE81)
Complete name                            : Yuragi-sou no Yuuna-san OVA - 01 [1080p].mkv
Format                                   : Matroska
Format version                           : Version 4 / Version 2
File size                                : 299 MiB
Duration                                 : 23 min 29 s
Overall bit rate                         : 1 782 kb/s
Encoded date                             : UTC 2018-07-05 03:13:56
Writing application                      : mkvmerge v24.0.0 ('Beyond The Pale') 64-bit
Writing library                          : libebml v1.3.6 + libmatroska v1.4.9

Video
ID                                       : 1
Format                                   : AVC
Format/Info                              : Advanced Video Codec
Format profile                           : High@L4
Format settings, CABAC                   : Yes
Format settings, ReFrames                : 6 frames
Codec ID                                 : V_MPEG4/ISO/AVC
Duration                                 : 23 min 29 s
Bit rate                                 : 1 651 kb/s
Width                                    : 1 920 pixels
Height                                   : 1 080 pixels
Display aspect ratio                     : 16:9
Frame rate mode                          : Constant
Frame rate                               : 23.976 (24000/1001) FPS
Color space                              : YUV
Chroma subsampling                       : 4:2:0
Bit depth                                : 8 bits
Scan type                                : Progressive
Bits/(Pixel*Frame)                       : 0.033
Stream size                              : 277 MiB (93%)
Writing library                          : x264 core 152 r2851 ba24899
Encoding settings                        : cabac=1 / ref=6 / deblock=1:0:0 / analyse=0x3:0x113 / me=umh / subme=9 / psy=1 / psy_rd=0.60:0.40 / mixed_ref=1 / me_range=32 / chroma_me=1 / trellis=2 / 8x8dct=1 / cqm=0 / deadzone=21,11 / fast_pskip=0 / chroma_qp_offset=-4 / threads=12 / lookahead_threads=1 / sliced_threads=0 / nr=0 / decimate=0 / interlaced=0 / bluray_compat=0 / constrained_intra=0 / bframes=6 / b_pyramid=2 / b_adapt=2 / b_bias=0 / direct=3 / weightb=1 / open_gop=0 / weightp=2 / keyint=240 / keyint_min=4 / scenecut=40 / intra_refresh=0 / rc=2pass / mbtree=0 / bitrate=1651 / ratetol=1.0 / qcomp=0.75 / qpmin=0 / qpmax=69 / qpstep=12 / cplxblur=20.0 / qblur=0.5 / ip_ratio=1.50 / pb_ratio=1.30 / aq=1:0.60
Default                                  : Yes
Forced                                   : No
Color range                              : Limited
Matrix coefficients                      : BT.709

Audio
ID                                       : 2
Format                                   : AAC
Format/Info                              : Advanced Audio Codec
Format profile                           : LC
Codec ID                                 : A_AAC
Duration                                 : 23 min 29 s
Bit rate                                 : 128 kb/s
Channel(s)                               : 2 channels
Channel positions                        : Front: L R
Sampling rate                            : 48.0 kHz
Frame rate                               : 46.875 FPS (1024 spf)
Compression mode                         : Lossy
Stream size                              : 21.5 MiB (7%)
Default                                  : Yes
Forced                                   : No

Text
ID                                       : 3
Format                                   : ASS
Codec ID                                 : S_TEXT/ASS
Codec ID/Info                            : Advanced Sub Station Alpha
Duration                                 : 21 min 52 s
Bit rate                                 : 120 b/s
Count of elements                        : 326
Compression mode                         : Lossless
Stream size                              : 19.2 KiB (0%)
Default                                  : Yes
Forced                                   : No
beta
Anime DDL+NZB mirror
Current Time: 06/04/2020 13:59



About/FAQs