File Size437.2 MB (458,489,202 bytes)
DownloadClickNUpload | DownloadGG | DropAPK | MultiUp
  • BdUpload
  • DownAce
  • Fichier
  • FileCloud
  • Filerio
  • FilesCdn
  • IndiShare
  • Kbagi
  • Turbobit
  • UpToBox
  • Uppit
| SolidFiles | ZippyShare
HashesCRC32: 9EB2DC35, MD5: 9EA78D395A7EE4C26B3B4B14673774F3, SHA1: EA8DD14D606240AE7ACE260A8041D7E4B8AF8A82, SHA256: EDDE8584662A4C4C21CB6AAB2572FD4531CCA3F73F83F8D2A592FB384F01B84A, ED2K: 7B2160E3A53DD7D28DEBA3D2A4FF6E79
Screenshots
screenshotscreenshotscreenshotscreenshotscreenshot
SubtitlesAll Attachments | English subs [eng, ASS]
Additional Info
General
Unique ID                                : 237796100394839039046891015816622873643 (0xB2E5DCF03F7C38F2D2051487CC679C2B)
Complete name                            : [YuiSubs] Tensei Shitara Slime Datta Ken - 48  (NVENC H.265 1080p).mkv
Format                                   : Matroska
Format version                           : Version 4
File size                                : 437 MiB
Duration                                 : 23 min 37 s
Overall bit rate                         : 2 588 kb/s
Writing application                      : Lavf57.83.100
Writing library                          : Lavf57.83.100
ErrorDetectionType                       : Per level 1
Attachments                              : Roboto-Medium.ttf / Roboto-MediumItalic.ttf / arial.ttf / arialbd.ttf / comic.ttf / comicbd.ttf / times.ttf / timesbd.ttf / trebuc.ttf / trebucbd.ttf / verdana.ttf / verdanab.ttf

Video
ID                                       : 1
Format                                   : HEVC
Format/Info                              : High Efficiency Video Coding
Format profile                           : Main@L4@Main
Codec ID                                 : V_MPEGH/ISO/HEVC
Duration                                 : 23 min 37 s
Bit rate                                 : 7 991 kb/s
Width                                    : 1 920 pixels
Height                                   : 1 080 pixels
Display aspect ratio                     : 16:9
Frame rate mode                          : Constant
Frame rate                               : 23.976 (23976/1000) FPS
Original frame rate                      : 23.976 (24000/1001) FPS
Color space                              : YUV
Chroma subsampling                       : 4:2:0
Bit depth                                : 8 bits
Bits/(Pixel*Frame)                       : 0.161
Stream size                              : 1.32 GiB
Writing library                          : Lavc57.107.100 hevc_nvenc
Default                                  : Yes
Forced                                   : No

Audio
ID                                       : 2
Format                                   : AAC LC
Format/Info                              : Advanced Audio Codec Low Complexity
Codec ID                                 : A_AAC-2
Duration                                 : 23 min 37 s
Bit rate                                 : 128 kb/s
Channel(s)                               : 2 channels
Channel layout                           : L R
Sampling rate                            : 44.1 kHz
Frame rate                               : 43.066 FPS (1024 SPF)
Compression mode                         : Lossy
Stream size                              : 21.6 MiB (5%)
Language                                 : Japanese
Default                                  : Yes
Forced                                   : No

Text
ID                                       : 3
Format                                   : ASS
Codec ID                                 : S_TEXT/ASS
Codec ID/Info                            : Advanced Sub Station Alpha
Duration                                 : 23 min 26 s
Bit rate                                 : 132 b/s
Count of elements                        : 377
Compression mode                         : Lossless
Stream size                              : 22.8 KiB (0%)
Title                                    : English subs
Language                                 : English
Default                                  : Yes
Forced                                   : No
beta
Anime DDL+NZB mirror
Current Time: 05/10/2022 14:25



About/FAQs

Discord