File Size457.4 MB (479,597,435 bytes)
DownloadAnonFiles | ClickNUpload | DropAPK | Free | MultiUp
  • BdUpload
  • DownAce
  • Fichier
  • FileCloud
  • Filerio
  • FilesCdn
  • IndiShare
  • Kbagi
  • Turbobit
  • UpToBox
  • Uppit
| SolidFiles | ZippyShare
HashesCRC32: 973610BC, MD5: 41BA8B2245A61BE7A21AEAF5ADF33792, SHA1: 27FE75CA3736E7D76E31F56379CC0A4E2C732124, SHA256: C2F651F6947CA0BEE7B5907707E7B66C61EDEA63EAD8BA4711E7001146382EFB, ED2K: 38BDB2BC2B59C8B453443AE2A6711BA5
Screenshots
screenshotscreenshotscreenshotscreenshotscreenshot
SubtitlesAll Attachments | English subs [eng, ASS]
Additional Info
General
Unique ID                                : 136323670362182852335987349212791744475 (0x668EFBE014536F973DFD40C3B812A7DB)
Complete name                            : [YuiSubs] Soukou Musume Senki - 09  (NVENC H.265 1080p).mkv
Format                                   : Matroska
Format version                           : Version 4
File size                                : 457 MiB
Duration                                 : 23 min 47 s
Overall bit rate                         : 2 688 kb/s
Writing application                      : Lavf57.83.100
Writing library                          : Lavf57.83.100
ErrorDetectionType                       : Per level 1
Attachments                              : Roboto-Medium.ttf / Roboto-MediumItalic.ttf

Video
ID                                       : 1
Format                                   : HEVC
Format/Info                              : High Efficiency Video Coding
Format profile                           : Main@L4@Main
Codec ID                                 : V_MPEGH/ISO/HEVC
Duration                                 : 23 min 47 s
Bit rate                                 : 7 432 kb/s
Width                                    : 1 920 pixels
Height                                   : 1 080 pixels
Display aspect ratio                     : 16:9
Frame rate mode                          : Constant
Frame rate                               : 23.976 (23976/1000) FPS
Original frame rate                      : 23.976 (24000/1001) FPS
Color space                              : YUV
Chroma subsampling                       : 4:2:0
Bit depth                                : 8 bits
Bits/(Pixel*Frame)                       : 0.149
Stream size                              : 1.23 GiB
Writing library                          : Lavc57.107.100 hevc_nvenc
Default                                  : Yes
Forced                                   : No

Audio
ID                                       : 2
Format                                   : AAC LC
Format/Info                              : Advanced Audio Codec Low Complexity
Codec ID                                 : A_AAC-2
Duration                                 : 23 min 47 s
Bit rate                                 : 253 kb/s
Channel(s)                               : 2 channels
Channel layout                           : L R
Sampling rate                            : 48.0 kHz
Frame rate                               : 46.875 FPS (1024 SPF)
Compression mode                         : Lossy
Delay relative to video                  : -42 ms
Stream size                              : 43.1 MiB (9%)
Language                                 : Japanese
Default                                  : Yes
Forced                                   : No

Text
ID                                       : 3
Format                                   : ASS
Codec ID                                 : S_TEXT/ASS
Codec ID/Info                            : Advanced Sub Station Alpha
Duration                                 : 22 min 23 s
Bit rate                                 : 65 b/s
Count of elements                        : 230
Compression mode                         : Lossless
Stream size                              : 10.7 KiB (0%)
Title                                    : English subs
Language                                 : English
Default                                  : Yes
Forced                                   : No
beta
Anime DDL+NZB mirror
Current Time: 03/12/2021 13:38



About/FAQs

Discord