File Size160.9 MB (168,702,589 bytes)
DownloadAnonFiles | ClickNUpload | DropAPK | Free | MultiUp
  • BdUpload
  • DownAce
  • Fichier
  • FileCloud
  • Filerio
  • FilesCdn
  • IndiShare
  • Kbagi
  • Turbobit
  • UpToBox
  • Uppit
| SolidFiles | ZippyShare
HashesCRC32: F5ACE4AD, MD5: 5ED4E61D802E6F85354D8F1CD42F0D88, SHA1: 6137FE23C477ECA0FEC548DE919099785021BC5A, SHA256: C20FF3A8D7C5ECE8105E63CCA9383831D22CB21F017C2702973DAEA97A70BA1A, ED2K: 2AD7889306DD6A2485A894DB0E903E35
Screenshots
screenshotscreenshotscreenshotscreenshotscreenshot
SubtitlesAll Attachments | English subs [eng, ASS]
Additional Info
General
Unique ID                                : 111103473218158617247155413823241490769 (0x5395C0274C1559990BDD1A95BE9A9151)
Complete name                            : [YuiSubs] Idolls! - 01 (NVENC H.265 1080p).mkv
Format                                   : Matroska
Format version                           : Version 4
File size                                : 161 MiB
Duration                                 : 8 min 0 s
Overall bit rate                         : 2 811 kb/s
Writing application                      : Lavf57.83.100
Writing library                          : Lavf57.83.100
ErrorDetectionType                       : Per level 1
Attachments                              : Roboto-Medium.ttf / Roboto-MediumItalic.ttf / arial.ttf / arialbd.ttf / comic.ttf / comicbd.ttf / times.ttf / timesbd.ttf / trebuc.ttf / trebucbd.ttf / verdana.ttf / verdanab.ttf

Video
ID                                       : 1
Format                                   : HEVC
Format/Info                              : High Efficiency Video Coding
Format profile                           : Main@L4@Main
Codec ID                                 : V_MPEGH/ISO/HEVC
Duration                                 : 8 min 0 s
Bit rate                                 : 7 925 kb/s
Width                                    : 1 920 pixels
Height                                   : 1 080 pixels
Display aspect ratio                     : 16:9
Frame rate mode                          : Constant
Frame rate                               : 29.970 (29970/1000) FPS
Original frame rate                      : 29.970 (30000/1001) FPS
Color space                              : YUV
Chroma subsampling                       : 4:2:0
Bit depth                                : 8 bits
Bits/(Pixel*Frame)                       : 0.128
Stream size                              : 454 MiB
Writing library                          : Lavc57.107.100 hevc_nvenc
Default                                  : Yes
Forced                                   : No

Audio
ID                                       : 2
Format                                   : AAC LC
Format/Info                              : Advanced Audio Codec Low Complexity
Codec ID                                 : A_AAC-2
Duration                                 : 8 min 0 s
Bit rate                                 : 128 kb/s
Channel(s)                               : 2 channels
Channel layout                           : L R
Sampling rate                            : 44.1 kHz
Frame rate                               : 43.066 FPS (1024 SPF)
Compression mode                         : Lossy
Stream size                              : 7.33 MiB (5%)
Language                                 : Japanese
Default                                  : Yes
Forced                                   : No

Text
ID                                       : 3
Format                                   : ASS
Codec ID                                 : S_TEXT/ASS
Codec ID/Info                            : Advanced Sub Station Alpha
Duration                                 : 6 min 39 s
Bit rate                                 : 205 b/s
Count of elements                        : 131
Compression mode                         : Lossless
Stream size                              : 10.00 KiB (0%)
Title                                    : English subs
Language                                 : English
Default                                  : Yes
Forced                                   : No
beta
Anime DDL+NZB mirror
Current Time: 16/04/2021 16:36



About/FAQs