[YuiSubs] Girls' Frontline - 02 (NVENC H.265 1080p).mkv


File Size467.2 MB (489,925,698 bytes)
DownloadClickNUpload | DownloadGG | MultiUp
  • BdUpload
  • DownAce
  • Fichier
  • FileCloud
  • Filerio
  • FilesCdn
  • IndiShare
  • Kbagi
  • Turbobit
  • UpToBox
  • Uppit
| ZippyShare
HashesCRC32: 902702A7, MD5: A1D83796496F53D91614C27603B06C6D, SHA1: E5B9DD4D84EB3662B22BE5B620E6962079E141D9, SHA256: 708191F36CDE9B9C10863C16722333368DEDF1BD4E99318A964635B411BB88C3, ED2K: 128B163D037234A811675E6393076AE7
Screenshots
screenshotscreenshotscreenshotscreenshotscreenshot
SubtitlesAll Attachments | English subs [eng, ASS]
Additional Info
General
Unique ID                                : 254847423996929365314773032111670706938 (0xBFB9D419663D32658988F5677BE242FA)
Complete name                            : [YuiSubs] Girls' Frontline - 02  (NVENC H.265 1080p).mkv
Format                                   : Matroska
Format version                           : Version 4
File size                                : 467 MiB
Duration                                 : 24 min 47 s
Overall bit rate                         : 2 635 kb/s
Writing application                      : Lavf57.83.100
Writing library                          : Lavf57.83.100
ErrorDetectionType                       : Per level 1
Attachments                              : Roboto-Medium.ttf / Roboto-MediumItalic.ttf

Video
ID                                       : 1
Format                                   : HEVC
Format/Info                              : High Efficiency Video Coding
Format profile                           : Main@L4@Main
Codec ID                                 : V_MPEGH/ISO/HEVC
Duration                                 : 24 min 47 s
Bit rate                                 : 5 876 kb/s
Width                                    : 1 920 pixels
Height                                   : 1 080 pixels
Display aspect ratio                     : 16:9
Frame rate mode                          : Constant
Frame rate                               : 23.976 (23976/1000) FPS
Original frame rate                      : 23.976 (24000/1001) FPS
Color space                              : YUV
Chroma subsampling                       : 4:2:0
Bit depth                                : 8 bits
Bits/(Pixel*Frame)                       : 0.118
Stream size                              : 1.02 GiB
Writing library                          : Lavc57.107.100 hevc_nvenc
Default                                  : Yes
Forced                                   : No

Audio
ID                                       : 2
Format                                   : AAC LC
Format/Info                              : Advanced Audio Codec Low Complexity
Codec ID                                 : A_AAC-2
Duration                                 : 24 min 47 s
Bit rate                                 : 256 kb/s
Channel(s)                               : 2 channels
Channel layout                           : L R
Sampling rate                            : 48.0 kHz
Frame rate                               : 46.875 FPS (1024 SPF)
Compression mode                         : Lossy
Stream size                              : 45.4 MiB (10%)
Language                                 : Japanese
Default                                  : Yes
Forced                                   : No

Text
ID                                       : 3
Format                                   : ASS
Codec ID                                 : S_TEXT/ASS
Codec ID/Info                            : Advanced Sub Station Alpha
Duration                                 : 24 min 45 s
Bit rate                                 : 97 b/s
Count of elements                        : 330
Compression mode                         : Lossless
Stream size                              : 17.5 KiB (0%)
Title                                    : English subs
Language                                 : English
Default                                  : Yes
Forced                                   : No
beta
Anime DDL+NZB mirror
Current Time: 25/05/2022 17:13



About/FAQs

Discord