File Size439.6 MB (460,997,490 bytes)
DownloadClickNUpload | DropAPK | Free | MultiUp
  • BdUpload
  • DownAce
  • Fichier
  • FileCloud
  • Filerio
  • FilesCdn
  • IndiShare
  • Kbagi
  • Turbobit
  • UpToBox
  • Uppit
| SolidFiles | ZippyShare
HashesCRC32: 06CD0ED7, MD5: B8265BE33776C3312F9BF8908E397CBF, SHA1: D5CBF98A72B942F5F27FCE53B55725949674727C, SHA256: 9FFF16C03211717532D2D499E326F5CD95DD30B13919C024D7C59D28200C8FC3, ED2K: E3C22113D7C543739FDFE1E4E0A8C8FA
Screenshots
screenshotscreenshotscreenshotscreenshotscreenshot
SubtitlesAll Attachments | English subs [eng, ASS]
Additional Info
General
Unique ID                                : 280377654694450419007571634442644245372 (0xD2EEC5A7C6B0C5E74117FABF9CCC4B7C)
Complete name                            : [YuiSubs] Fruits Basket (2019) S3 - 07  (NVENC H.265 1080p).mkv
Format                                   : Matroska
Format version                           : Version 4
File size                                : 440 MiB
Duration                                 : 23 min 55 s
Overall bit rate                         : 2 569 kb/s
Writing application                      : Lavf57.83.100
Writing library                          : Lavf57.83.100
ErrorDetectionType                       : Per level 1
Attachments                              : Roboto-Medium.ttf / Roboto-MediumItalic.ttf / arial.ttf / arialbd.ttf / comic.ttf / comicbd.ttf / times.ttf / timesbd.ttf / trebuc.ttf / trebucbd.ttf / verdana.ttf / verdanab.ttf

Video
ID                                       : 1
Format                                   : HEVC
Format/Info                              : High Efficiency Video Coding
Format profile                           : Main@L4@Main
Codec ID                                 : V_MPEGH/ISO/HEVC
Duration                                 : 23 min 50 s
Bit rate                                 : 7 987 kb/s
Width                                    : 1 920 pixels
Height                                   : 1 080 pixels
Display aspect ratio                     : 16:9
Frame rate mode                          : Constant
Frame rate                               : 23.976 (23976/1000) FPS
Original frame rate                      : 23.976 (24000/1001) FPS
Color space                              : YUV
Chroma subsampling                       : 4:2:0
Bit depth                                : 8 bits
Bits/(Pixel*Frame)                       : 0.161
Stream size                              : 1.33 GiB
Writing library                          : Lavc57.107.100 hevc_nvenc
Default                                  : Yes
Forced                                   : No

Audio
ID                                       : 2
Format                                   : AAC LC
Format/Info                              : Advanced Audio Codec Low Complexity
Codec ID                                 : A_AAC-2
Duration                                 : 23 min 50 s
Bit rate                                 : 128 kb/s
Channel(s)                               : 2 channels
Channel layout                           : L R
Sampling rate                            : 44.1 kHz
Frame rate                               : 43.066 FPS (1024 SPF)
Compression mode                         : Lossy
Stream size                              : 21.8 MiB (5%)
Language                                 : Japanese
Default                                  : Yes
Forced                                   : No

Text
ID                                       : 3
Format                                   : ASS
Codec ID                                 : S_TEXT/ASS
Codec ID/Info                            : Advanced Sub Station Alpha
Duration                                 : 23 min 55 s
Bit rate                                 : 97 b/s
Count of elements                        : 298
Compression mode                         : Lossless
Stream size                              : 17.0 KiB (0%)
Title                                    : English subs
Language                                 : English
Default                                  : Yes
Forced                                   : No
beta
Anime DDL+NZB mirror
Current Time: 24/09/2021 12:05



About/FAQs