[youshikibi] Steins;Gate - Fuka Ryouiki no Déjà vu (BD 1280x720 h264 AC3 AAC) [1f462c67].mp4


File Size1.653 GB (1,774,664,908 bytes)
DownloadAnonFiles: Part1, Part2, Part3, Part4
EmbedUpload: Part1, Part2, Part3
Jheberg: Part1, Part2
Mega: Part1, Part2
MultiUpload: Part1, Part2, Part3
Sendspace: Part1, Part2, Part3, Part4, Part5, Part6
ShareBeast: Part1, Part2, Part3, Part4, Part5, Part6, Part7, Part8, Part9
HashesCRC32: 1F462C67, MD5: 82DD267316B3CA702AAD00EEAD2D1367, SHA1: 2CF3EFAB2CBC301820716BEB123301994E5BD99E, SHA256: DBAE4DB1AA2B5ABD541B1B53124032E12F2CED5352B31CAD87330FB70DCE6E7E, ED2K: 43519E6082F1CEA6729FC22BC5F3605E
Screenshots
screenshotscreenshotscreenshotscreenshotscreenshot
Additional Info
General
Complete name                            : [youshikibi] Steins;Gate - Fuka Ryouiki no Déjà vu (BD 1280x720 h264 AC3 AAC) [1f462c67].mp4
Format                                   : MPEG-4
Format profile                           : Base Media
Codec ID                                 : isom
File size                                : 1.65 GiB
Duration                                 : 1h 30mn
Overall bit rate mode                    : Variable
Overall bit rate                         : 2 628 Kbps
Movie name                               : Steins;Gate: Fuka Ryouiki no Déjà vu
Recorded date                            : 2013
Encoded date                             : UTC 2013-12-17 09:39:11
Tagged date                              : UTC 2013-12-17 09:39:11
Writing application                      : My MP4Box GUI 0.6.0.6 <http://my-mp4box-gui.zymichost.com>
Cover                                    : Yes

Video
ID                                       : 1
Format                                   : AVC
Format/Info                              : Advanced Video Codec
Format profile                           : High@L4.1
Format settings, CABAC                   : Yes
Format settings, ReFrames                : 6 frames
Codec ID                                 : avc1
Codec ID/Info                            : Advanced Video Coding
Duration                                 : 1h 30mn
Bit rate                                 : 1 728 Kbps
Maximum bit rate                         : 13.1 Mbps
Width                                    : 1 280 pixels
Height                                   : 720 pixels
Display aspect ratio                     : 16:9
Frame rate mode                          : Constant
Frame rate                               : 23.976 fps
Color space                              : YUV
Chroma subsampling                       : 4:2:0
Bit depth                                : 8 bits
Scan type                                : Progressive
Bits/(Pixel*Frame)                       : 0.078
Stream size                              : 1.09 GiB (66%)
Writing library                          : x264 core 130 r2273 b3065e6
Encoding settings                        : cabac=1 / ref=6 / deblock=1:0:0 / analyse=0x3:0x133 / me=umh / subme=7 / psy=1 / psy_rd=1.00:0.10 / mixed_ref=1 / me_range=24 / chroma_me=1 / trellis=2 / 8x8dct=1 / cqm=0 / deadzone=21,11 / fast_pskip=0 / chroma_qp_offset=-3 / threads=6 / lookahead_threads=1 / sliced_threads=0 / nr=0 / decimate=1 / interlaced=0 / bluray_compat=0 / constrained_intra=0 / bframes=5 / b_pyramid=2 / b_adapt=2 / b_bias=0 / direct=3 / weightb=1 / open_gop=0 / weightp=2 / keyint=250 / keyint_min=23 / scenecut=40 / intra_refresh=0 / rc_lookahead=60 / rc=crf / mbtree=1 / crf=18.0 / qcomp=0.60 / qpmin=0 / qpmax=69 / qpstep=4 / ip_ratio=1.40 / aq=1:1.00
Encoded date                             : UTC 2013-12-17 09:39:11
Tagged date                              : UTC 2013-12-17 09:40:30

Audio #1
ID                                       : 2
Format                                   : AC-3
Format/Info                              : Audio Coding 3
Mode extension                           : CM (complete main)
Format settings, Endianness              : Big
Codec ID                                 : ac-3
Duration                                 : 1h 30mn
Bit rate mode                            : Constant
Bit rate                                 : 640 Kbps
Channel count                            : 6 channels
Channel positions                        : Front: L C R, Side: L R, LFE
Sampling rate                            : 48.0 KHz
Bit depth                                : 16 bits
Compression mode                         : Lossy
Stream size                              : 412 MiB (24%)
Title                                    : ac3.ac3
Encoded date                             : UTC 2013-12-17 09:39:25
Tagged date                              : UTC 2013-12-17 09:40:30

Audio #2
ID                                       : 3
Format                                   : AAC
Format/Info                              : Advanced Audio Codec
Format profile                           : LC
Codec ID                                 : 40
Duration                                 : 1h 30mn
Bit rate mode                            : Variable
Bit rate                                 : 256 Kbps
Maximum bit rate                         : 263 Kbps
Channel count                            : 2 channels
Channel positions                        : Front: L R
Sampling rate                            : 48.0 KHz
Compression mode                         : Lossy
Stream size                              : 165 MiB (10%)
Title                                    : aac.m4a
Encoded date                             : UTC 2013-12-17 09:39:31
Tagged date                              : UTC 2013-12-17 09:40:30
beta
Anime DDL+NZB mirror
Current Time: 03/08/2021 16:21



About/FAQs