[youshikibi] Sankarea - NCOP (1280x720 h264 AAC) [7973b784].mp4


File Size25.05 MB (26,266,477 bytes)
DownloadBitshare | FileFactory | Freakshare | Minus
HashesCRC32: 7973B784, MD5: 3F55F2786C950499C5E30A70956B1F56, SHA1: 668CBB68E26F02293DEC9DB6AC1BDBD1C114DBC0, SHA256: 17404FA29DE8632A9FD1F1FB9220D4B68CE27C403420EF363E8C567A0EAE1D52, ED2K: A04D52E60B8F19E6C80B57BA4DBC5B83
Screenshots
screenshotscreenshot
Additional Info
General
Complete name                            : [youshikibi] Sankarea - NCOP (1280x720 h264 AAC) [7973b784].mp4
Format                                   : MPEG-4
Format profile                           : Base Media
Codec ID                                 : isom
File size                                : 25.0 MiB
Duration                                 : 1mn 31s
Overall bit rate mode                    : Variable
Overall bit rate                         : 2 304 Kbps
Encoded date                             : UTC 2012-09-04 09:59:17
Tagged date                              : UTC 2012-09-04 09:59:17

Video
ID                                       : 1
Format                                   : AVC
Format/Info                              : Advanced Video Codec
Format profile                           : High@L4.1
Format settings, CABAC                   : Yes
Format settings, ReFrames                : 4 frames
Codec ID                                 : avc1
Codec ID/Info                            : Advanced Video Coding
Duration                                 : 1mn 31s
Bit rate                                 : 2 110 Kbps
Maximum bit rate                         : 8 699 Kbps
Width                                    : 1 280 pixels
Height                                   : 720 pixels
Display aspect ratio                     : 16:9
Frame rate mode                          : Constant
Frame rate                               : 23.976 fps
Color space                              : YUV
Chroma subsampling                       : 4:2:0
Bit depth                                : 8 bits
Scan type                                : Progressive
Bits/(Pixel*Frame)                       : 0.095
Stream size                              : 22.9 MiB (92%)
Writing library                          : x264 core 125 r2200 999b753
Encoding settings                        : cabac=1 / ref=3 / deblock=1:1:1 / analyse=0x3:0x113 / me=hex / subme=6 / psy=1 / psy_rd=1.00:0.15 / mixed_ref=1 / me_range=16 / chroma_me=1 / trellis=1 / 8x8dct=1 / cqm=0 / deadzone=21,11 / fast_pskip=1 / chroma_qp_offset=-3 / threads=1 / lookahead_threads=1 / sliced_threads=0 / nr=0 / decimate=1 / interlaced=0 / bluray_compat=0 / constrained_intra=0 / bframes=3 / b_pyramid=2 / b_adapt=2 / b_bias=0 / direct=3 / weightb=1 / open_gop=0 / weightp=2 / keyint=250 / keyint_min=23 / scenecut=40 / intra_refresh=0 / rc_lookahead=30 / rc=crf / mbtree=1 / crf=21.0 / qcomp=0.50 / qpmin=0 / qpmax=69 / qpstep=4 / vbv_maxrate=24000 / vbv_bufsize=24000 / crf_max=0.0 / nal_hrd=none / ip_ratio=1.10 / aq=1:1.50
Encoded date                             : UTC 2012-09-04 09:59:17
Tagged date                              : UTC 2012-09-04 09:59:17

Audio
ID                                       : 2
Format                                   : AAC
Format/Info                              : Advanced Audio Codec
Format profile                           : LC
Codec ID                                 : 40
Duration                                 : 1mn 31s
Bit rate mode                            : Variable
Bit rate                                 : 192 Kbps
Maximum bit rate                         : 219 Kbps
Channel(s)                               : 2 channels
Channel positions                        : Front: L R
Sampling rate                            : 48.0 KHz
Compression mode                         : Lossy
Delay relative to video                  : -3s 337ms
Stream size                              : 2.07 MiB (8%)
Encoded date                             : UTC 2012-09-04 09:59:17
Tagged date                              : UTC 2012-09-04 09:59:17

Other Files in this Torrent
[youshikibi] Sankarea - NCOP (1280x720 h264 AAC) [7973b784].mp4
beta
Anime DDL+NZB mirror
Current Time: 02/08/2021 05:11



About/FAQs