[youshikibi] Sankarea - NCED (1280x720 h264 AAC) [2e5ad3bf].mp4


File Size16.16 MB (16,948,482 bytes)
DownloadBitshare | Freakshare | Minus | UploadedTo | Ziddu
HashesCRC32: 2E5AD3BF, MD5: 18F9EFCC4B44A31126EE6FE3842BF9B1, SHA1: A123AE29B9E6CD9D2B1F5661D7C315DBB957E1C7, SHA256: 554E806F7237350E706A4AA4FE36E803BB4E3BD4F8959BA2FAC868CC161E9B18, ED2K: 1830095A5F4284F377AF867FABD2306D
Screenshots
screenshotscreenshot
Additional Info
General
Complete name                            : [youshikibi] Sankarea - NCED (1280x720 h264 AAC) [2e5ad3bf].mp4
Format                                   : MPEG-4
Format profile                           : Base Media
Codec ID                                 : isom
File size                                : 16.2 MiB
Duration                                 : 1mn 31s
Overall bit rate mode                    : Variable
Overall bit rate                         : 1 486 Kbps
Encoded date                             : UTC 2012-09-04 10:07:35
Tagged date                              : UTC 2012-09-04 10:07:35

Video
ID                                       : 1
Format                                   : AVC
Format/Info                              : Advanced Video Codec
Format profile                           : High@L4.1
Format settings, CABAC                   : Yes
Format settings, ReFrames                : 4 frames
Codec ID                                 : avc1
Codec ID/Info                            : Advanced Video Coding
Duration                                 : 1mn 31s
Bit rate                                 : 1 291 Kbps
Maximum bit rate                         : 3 504 Kbps
Width                                    : 1 280 pixels
Height                                   : 720 pixels
Display aspect ratio                     : 16:9
Frame rate mode                          : Constant
Frame rate                               : 23.976 fps
Color space                              : YUV
Chroma subsampling                       : 4:2:0
Bit depth                                : 8 bits
Scan type                                : Progressive
Bits/(Pixel*Frame)                       : 0.058
Stream size                              : 14.0 MiB (87%)
Writing library                          : x264 core 125 r2200 999b753
Encoding settings                        : cabac=1 / ref=3 / deblock=1:1:1 / analyse=0x3:0x113 / me=hex / subme=6 / psy=1 / psy_rd=1.00:0.15 / mixed_ref=1 / me_range=16 / chroma_me=1 / trellis=1 / 8x8dct=1 / cqm=0 / deadzone=21,11 / fast_pskip=1 / chroma_qp_offset=-3 / threads=1 / lookahead_threads=1 / sliced_threads=0 / nr=0 / decimate=1 / interlaced=0 / bluray_compat=0 / constrained_intra=0 / bframes=3 / b_pyramid=2 / b_adapt=2 / b_bias=0 / direct=3 / weightb=1 / open_gop=0 / weightp=2 / keyint=250 / keyint_min=23 / scenecut=40 / intra_refresh=0 / rc_lookahead=30 / rc=crf / mbtree=1 / crf=21.0 / qcomp=0.50 / qpmin=0 / qpmax=69 / qpstep=4 / vbv_maxrate=24000 / vbv_bufsize=24000 / crf_max=0.0 / nal_hrd=none / ip_ratio=1.10 / aq=1:1.50
Encoded date                             : UTC 2012-09-04 10:07:35
Tagged date                              : UTC 2012-09-04 10:07:35

Audio
ID                                       : 2
Format                                   : AAC
Format/Info                              : Advanced Audio Codec
Format profile                           : LC
Codec ID                                 : 40
Duration                                 : 1mn 31s
Bit rate mode                            : Variable
Bit rate                                 : 192 Kbps
Maximum bit rate                         : 223 Kbps
Channel(s)                               : 2 channels
Channel positions                        : Front: L R
Sampling rate                            : 48.0 KHz
Compression mode                         : Lossy
Delay relative to video                  : -3s 337ms
Stream size                              : 2.09 MiB (13%)
Encoded date                             : UTC 2012-09-04 10:07:35
Tagged date                              : UTC 2012-09-04 10:07:35

Other Files in this Torrent
[youshikibi] Sankarea - NCED (1280x720 h264 AAC) [2e5ad3bf].mp4
beta
Anime DDL+NZB mirror
Current Time: 02/08/2021 06:59



About/FAQs