[youshikibi] One Piece Movie 9 - Bloom in the Winter, Miracle Sakura [BD 720p].mp4


File Size1.358 GB (1,458,264,041 bytes)
DownloadJumboFiles: Part1, Part2
HashesCRC32: E2C2C5DF, MD5: 58707F1913170531D9A37FBF454508C1, SHA1: D80DE50124EFD663D67E6CBC9429539D5D872C56, SHA256: BBE62DE20E9F988A0E9DA9C104A64E0B668D3D721EE70A285295CD72110947B4, ED2K: FBC5F5332C6F731C39DB0309BBB379AE
Screenshots
screenshotscreenshotscreenshotscreenshotscreenshot
Additional Info
General
Complete name                            : [youshikibi] One Piece Movie 9 - Bloom in the Winter, Miracle Sakura [BD 720p].mp4
Format                                   : MPEG-4
Format profile                           : Base Media
Codec ID                                 : isom
File size                                : 1.36 GiB
Duration                                 : 1h 52mn
Overall bit rate mode                    : Variable
Overall bit rate                         : 1 721 Kbps
Movie name                               : One Piece Movie 9: Bloom in the Winter, Miracle Sakura
Encoded date                             : UTC 2012-07-05 13:41:04
Tagged date                              : UTC 2012-07-05 13:41:04
Comment                                  : MP4 format with hardcoded English subtitles from Yibis' release
Xtra                                     : WM/EncodedBy

Video
ID                                       : 1
Format                                   : AVC
Format/Info                              : Advanced Video Codec
Format profile                           : High@L4.1
Format settings, CABAC                   : Yes
Format settings, ReFrames                : 4 frames
Codec ID                                 : avc1
Codec ID/Info                            : Advanced Video Coding
Duration                                 : 1h 52mn
Bit rate                                 : 1 339 Kbps
Maximum bit rate                         : 11.8 Mbps
Width                                    : 1 280 pixels
Height                                   : 720 pixels
Display aspect ratio                     : 16:9
Frame rate mode                          : Constant
Frame rate                               : 23.976 fps
Color space                              : YUV
Chroma subsampling                       : 4:2:0
Bit depth                                : 8 bits
Scan type                                : Progressive
Bits/(Pixel*Frame)                       : 0.061
Stream size                              : 1.06 GiB (78%)
Title                                    : Imported with GPAC 0.4.6-DEV (build 1)
Writing library                          : x264 core 92 r1510 33d382a
Encoding settings                        : cabac=1 / ref=3 / deblock=1:0:0 / analyse=0x3:0x113 / me=esa / subme=7 / psy=1 / psy_rd=1.00:0.00 / mixed_ref=1 / me_range=12 / chroma_me=1 / trellis=2 / 8x8dct=1 / cqm=0 / deadzone=21,11 / fast_pskip=1 / chroma_qp_offset=-2 / threads=1 / sliced_threads=0 / nr=0 / decimate=1 / interlaced=0 / constrained_intra=0 / bframes=3 / b_pyramid=2 / b_adapt=2 / b_bias=0 / direct=3 / wpredb=1 / wpredp=2 / keyint=250 / keyint_min=25 / scenecut=40 / intra_refresh=0 / rc_lookahead=60 / rc=crf / mbtree=1 / crf=20.0 / qcomp=0.50 / qpmin=10 / qpmax=51 / qpstep=4 / vbv_maxrate=24000 / vbv_bufsize=24000 / crf-max=0.000000 / ip_ratio=1.40 / aq=1:1.00 / nal_hrd=none
Encoded date                             : UTC 2012-07-05 13:41:04
Tagged date                              : UTC 2012-07-05 13:42:42

Audio
ID                                       : 2
Format                                   : AAC
Format/Info                              : Advanced Audio Codec
Format profile                           : LC
Codec ID                                 : 40
Duration                                 : 1h 52mn
Bit rate mode                            : Variable
Bit rate                                 : 384 Kbps
Maximum bit rate                         : 411 Kbps
Channel(s)                               : 6 channels
Channel positions                        : Front: L C R, Side: L R, LFE
Sampling rate                            : 48.0 KHz
Compression mode                         : Lossy
Stream size                              : 306 MiB (22%)
Title                                    : Imported with GPAC 0.4.6-DEV (build 1)
Encoded date                             : UTC 2012-07-05 13:42:32
Tagged date                              : UTC 2012-07-05 13:42:42
beta
Anime DDL+NZB mirror
Current Time: 26/07/2021 23:08



About/FAQs