[youshikibi] Date a Live - 13 (BD 1280x720 h264 AAC) [30621031].mp4


File Size308.8 MB (323,812,024 bytes)
DownloadAnonFiles | EmbedUpload | Jheberg | Mega | MultiUpload
Sendspace: Part1, Part2
ShareBeast: Part1, Part2
HashesCRC32: 30621031, MD5: 8FAD73E510D64951EF7B4551C671F143, SHA1: 1361B078049199931AB8DB2BBB5AD978883B6208, SHA256: 55B8A7FBF04A920203EA49E1750A7D18459E5303351EC56633D76DC7189A23DB, ED2K: 01D7FC21FFE8D7A30DF5C709212BD352
Screenshots
screenshotscreenshotscreenshotscreenshotscreenshot
Additional Info
General
Complete name                            : [youshikibi] Date a Live - 13 (BD 1280x720 h264 AAC) [30621031].mp4
Format                                   : MPEG-4
Format profile                           : Base Media
Codec ID                                 : isom
File size                                : 309 MiB
Duration                                 : 23mn 55s
Overall bit rate mode                    : Variable
Overall bit rate                         : 1 805 Kbps
Movie name                               : Date a Live Episode 13 (OVA)
Encoded date                             : UTC 2014-01-21 14:07:50
Tagged date                              : UTC 2014-01-21 14:07:50

Video
ID                                       : 1
Format                                   : AVC
Format/Info                              : Advanced Video Codec
Format profile                           : High@L4.1
Format settings, CABAC                   : Yes
Format settings, ReFrames                : 2 frames
Codec ID                                 : avc1
Codec ID/Info                            : Advanced Video Coding
Duration                                 : 23mn 53s
Bit rate                                 : 1 522 Kbps
Maximum bit rate                         : 11.4 Mbps
Width                                    : 1 280 pixels
Height                                   : 720 pixels
Display aspect ratio                     : 16:9
Frame rate mode                          : Constant
Frame rate                               : 23.976 fps
Color space                              : YUV
Chroma subsampling                       : 4:2:0
Bit depth                                : 8 bits
Scan type                                : Progressive
Bits/(Pixel*Frame)                       : 0.069
Stream size                              : 260 MiB (84%)
Writing library                          : x264 core 130 r2273 b3065e6
Encoding settings                        : cabac=1 / ref=1 / deblock=1:0:0 / analyse=0x3:0x133 / me=umh / subme=7 / psy=1 / psy_rd=1.00:0.00 / mixed_ref=0 / me_range=24 / chroma_me=1 / trellis=2 / 8x8dct=1 / cqm=0 / deadzone=21,11 / fast_pskip=0 / chroma_qp_offset=-2 / threads=6 / lookahead_threads=1 / sliced_threads=0 / slices=4 / nr=0 / decimate=1 / interlaced=0 / bluray_compat=0 / constrained_intra=0 / bframes=1 / b_pyramid=0 / b_adapt=0 / b_bias=0 / direct=3 / weightb=1 / open_gop=0 / weightp=2 / keyint=250 / keyint_min=23 / scenecut=40 / intra_refresh=0 / rc_lookahead=60 / rc=crf / mbtree=1 / crf=20.0 / qcomp=0.60 / qpmin=0 / qpmax=69 / qpstep=4 / ip_ratio=1.40 / aq=1:1.50
Encoded date                             : UTC 2014-01-21 14:07:50
Tagged date                              : UTC 2014-01-21 14:07:58

Audio
ID                                       : 2
Format                                   : AAC
Format/Info                              : Advanced Audio Codec
Format profile                           : LC
Codec ID                                 : 40
Duration                                 : 23mn 55s
Bit rate mode                            : Variable
Bit rate                                 : 281 Kbps
Maximum bit rate                         : 353 Kbps
Channel count                            : 2 channels
Channel positions                        : Front: L R
Sampling rate                            : 48.0 KHz
Compression mode                         : Lossy
Delay relative to video                  : 42ms
Stream size                              : 48.0 MiB (16%)
Encoded date                             : UTC 2014-01-21 14:07:57
Tagged date                              : UTC 2014-01-21 14:07:58
beta
Anime DDL+NZB mirror
Current Time: 26/09/2021 02:50



About/FAQs

Discord