File Size1.738 GB (1,866,366,497 bytes)
DownloadClickNUpload
DownloadGG: Part1, Part2
KrakenFiles: Part1, Part2
MultiUp: Part1
  • BdUpload
  • DownAce
  • Fichier
  • FileCloud
  • Filerio
  • FilesCdn
  • IndiShare
  • Kbagi
  • Turbobit
  • UpToBox
  • Uppit
, Part2
  • BdUpload
  • DownAce
  • Fichier
  • FileCloud
  • Filerio
  • FilesCdn
  • IndiShare
  • Kbagi
  • Turbobit
  • UpToBox
  • Uppit
, Part3
  • BdUpload
  • DownAce
  • Fichier
  • FileCloud
  • Filerio
  • FilesCdn
  • IndiShare
  • Kbagi
  • Turbobit
  • UpToBox
  • Uppit
, Part4
  • BdUpload
  • DownAce
  • Fichier
  • FileCloud
  • Filerio
  • FilesCdn
  • IndiShare
  • Kbagi
  • Turbobit
  • UpToBox
  • Uppit

ZippyShare: Part1, Part2, Part3, Part4
HashesCRC32: C89838B4, MD5: 6D56339912DA00A656CAFA2FEE373C28, SHA1: A6E4A5F7BAEA5812230BC7A445C99B04D47E6613, SHA256: 31B0C61EF7CA451D137EC61FB41A5638EB9BBF4E8DC46FB19930B8B5BD55E651, ED2K: AAC5425D84E1DC785C72FFDD23EC6643
Screenshots
screenshotscreenshotscreenshotscreenshotscreenshot
SubtitlesAll Attachments | eng [ASS], Middle East [ara, ASS], ger [ASS], Latin American [spa, ASS], European [spa, ASS], ind [ASS], European [fre, ASS], ita [ASS], Brazilian [por, ASS], tha [ASS], rus [ASS], vie [ASS]
Additional Info
General
Unique ID                                : 138468655249981963984129364628180907218 (0x682C17CB9A9217A85DE1776ADE7934D2)
Complete name                            : To.Your.Eternity.S02E05.1080p.AMZN.WEB-DL.DDP2.0.H.264-VARYG.mkv
Format                                   : Matroska
Format version                           : Version 4
File size                                : 1.74 GiB
Duration                                 : 25 min 0 s
Overall bit rate                         : 9 954 kb/s
Encoded date                             : UTC 2022-11-23 20:26:00
Writing application                      : mkvmerge v70.0.0 ('Caught A Lite Sneeze') 64-bit
Writing library                          : libebml v1.4.2 + libmatroska v1.6.4
Attachments                              : Arial.ttf / Comic Sans MS.ttf / Consolas.ttf / Courier New.ttf / Georgia.ttf / Tahoma.ttf / Times New Roman.ttf / Trebuchet MS.ttf / Verdana.ttf / NotoSans-Medium.ttf

Video
ID                                       : 1
Format                                   : AVC
Format/Info                              : Advanced Video Codec
Format profile                           : High@L4
Format settings                          : CABAC / 4 Ref Frames
Format settings, CABAC                   : Yes
Format settings, Reference frames        : 4 frames
Codec ID                                 : V_MPEG4/ISO/AVC
Duration                                 : 25 min 0 s
Bit rate mode                            : Constant
Bit rate                                 : 10 000 kb/s
Width                                    : 1 920 pixels
Height                                   : 1 080 pixels
Display aspect ratio                     : 16:9
Frame rate mode                          : Constant
Frame rate                               : 23.976 (24000/1001) FPS
Color space                              : YUV
Chroma subsampling                       : 4:2:0
Bit depth                                : 8 bits
Scan type                                : Progressive
Bits/(Pixel*Frame)                       : 0.201
Stream size                              : 1.69 GiB (97%)
Default                                  : Yes
Forced                                   : No
Color range                              : Limited
Color primaries                          : BT.709
Transfer characteristics                 : BT.709
Matrix coefficients                      : BT.709

Audio
ID                                       : 2
Format                                   : E-AC-3
Format/Info                              : Enhanced AC-3
Commercial name                          : Dolby Digital Plus
Codec ID                                 : A_EAC3
Duration                                 : 25 min 0 s
Bit rate mode                            : Constant
Bit rate                                 : 224 kb/s
Channel(s)                               : 2 channels
Channel layout                           : L R
Sampling rate                            : 48.0 kHz
Frame rate                               : 31.250 FPS (1536 SPF)
Compression mode                         : Lossy
Stream size                              : 40.1 MiB (2%)
Language                                 : Japanese
Service kind                             : Complete Main
Default                                  : Yes
Forced                                   : No

Text #1
ID                                       : 3
Format                                   : ASS
Codec ID                                 : S_TEXT/ASS
Codec ID/Info                            : Advanced Sub Station Alpha
Duration                                 : 24 min 54 s
Bit rate                                 : 131 b/s
Count of elements                        : 382
Compression mode                         : Lossless
Stream size                              : 24.0 KiB (0%)
Language                                 : English
Default                                  : Yes
Forced                                   : No

Text #2
ID                                       : 4
Format                                   : ASS
Codec ID                                 : S_TEXT/ASS
Codec ID/Info                            : Advanced Sub Station Alpha
Duration                                 : 24 min 54 s
Bit rate                                 : 157 b/s
Count of elements                        : 382
Compression mode                         : Lossless
Stream size                              : 28.8 KiB (0%)
Title                                    : Middle East
Language                                 : Arabic
Default                                  : No
Forced                                   : No

Text #3
ID                                       : 5
Format                                   : ASS
Codec ID                                 : S_TEXT/ASS
Codec ID/Info                            : Advanced Sub Station Alpha
Duration                                 : 24 min 53 s
Bit rate                                 : 132 b/s
Count of elements                        : 343
Compression mode                         : Lossless
Stream size                              : 24.1 KiB (0%)
Language                                 : German
Default                                  : No
Forced                                   : No

Text #4
ID                                       : 6
Format                                   : ASS
Codec ID                                 : S_TEXT/ASS
Codec ID/Info                            : Advanced Sub Station Alpha
Duration                                 : 24 min 53 s
Bit rate                                 : 133 b/s
Count of elements                        : 322
Compression mode                         : Lossless
Stream size                              : 24.3 KiB (0%)
Title                                    : Latin American
Language                                 : Spanish
Default                                  : No
Forced                                   : No

Text #5
ID                                       : 7
Format                                   : ASS
Codec ID                                 : S_TEXT/ASS
Codec ID/Info                            : Advanced Sub Station Alpha
Duration                                 : 24 min 53 s
Bit rate                                 : 131 b/s
Count of elements                        : 322
Compression mode                         : Lossless
Stream size                              : 24.1 KiB (0%)
Title                                    : European
Language                                 : Spanish
Default                                  : No
Forced                                   : No

Text #6
ID                                       : 8
Format                                   : ASS
Codec ID                                 : S_TEXT/ASS
Codec ID/Info                            : Advanced Sub Station Alpha
Duration                                 : 24 min 53 s
Bit rate                                 : 110 b/s
Count of elements                        : 361
Compression mode                         : Lossless
Stream size                              : 20.1 KiB (0%)
Language                                 : Indonesian
Default                                  : No
Forced                                   : No

Text #7
ID                                       : 9
Format                                   : ASS
Codec ID                                 : S_TEXT/ASS
Codec ID/Info                            : Advanced Sub Station Alpha
Duration                                 : 24 min 53 s
Bit rate                                 : 139 b/s
Count of elements                        : 341
Compression mode                         : Lossless
Stream size                              : 25.5 KiB (0%)
Title                                    : European
Language                                 : French
Default                                  : No
Forced                                   : No

Text #8
ID                                       : 10
Format                                   : ASS
Codec ID                                 : S_TEXT/ASS
Codec ID/Info                            : Advanced Sub Station Alpha
Duration                                 : 24 min 53 s
Bit rate                                 : 145 b/s
Count of elements                        : 395
Compression mode                         : Lossless
Stream size                              : 26.6 KiB (0%)
Language                                 : Italian
Default                                  : No
Forced                                   : No

Text #9
ID                                       : 11
Format                                   : ASS
Codec ID                                 : S_TEXT/ASS
Codec ID/Info                            : Advanced Sub Station Alpha
Duration                                 : 24 min 54 s
Bit rate                                 : 146 b/s
Count of elements                        : 394
Compression mode                         : Lossless
Stream size                              : 26.8 KiB (0%)
Title                                    : Brazilian
Language                                 : Portuguese
Default                                  : No
Forced                                   : No

Text #10
ID                                       : 12
Format                                   : ASS
Codec ID                                 : S_TEXT/ASS
Codec ID/Info                            : Advanced Sub Station Alpha
Duration                                 : 24 min 54 s
Bit rate                                 : 220 b/s
Count of elements                        : 444
Compression mode                         : Lossless
Stream size                              : 40.3 KiB (0%)
Language                                 : Thai
Default                                  : No
Forced                                   : No

Text #11
ID                                       : 13
Format                                   : ASS
Codec ID                                 : S_TEXT/ASS
Codec ID/Info                            : Advanced Sub Station Alpha
Duration                                 : 24 min 53 s
Bit rate                                 : 237 b/s
Count of elements                        : 434
Compression mode                         : Lossless
Stream size                              : 43.3 KiB (0%)
Language                                 : Russian
Default                                  : No
Forced                                   : No

Text #12
ID                                       : 14
Format                                   : ASS
Codec ID                                 : S_TEXT/ASS
Codec ID/Info                            : Advanced Sub Station Alpha
Duration                                 : 24 min 53 s
Bit rate                                 : 132 b/s
Count of elements                        : 365
Compression mode                         : Lossless
Stream size                              : 24.1 KiB (0%)
Language                                 : Vietnamese
Default                                  : No
Forced                                   : No

Menu
00:00:00.000                             : Part 01
00:00:31.500                             : Intro
00:02:02.500                             : Part 02
00:23:02.450                             : Credits
00:24:30.224                             : Preview
beta
Anime DDL+NZB mirror
Current Time: 28/01/2023 13:57



About/FAQs

Discord