File Size0.994 GB (1,066,999,302 bytes)
DownloadClickNUpload | DownloadGG
MultiUp: Part1
  • BdUpload
  • DownAce
  • Fichier
  • FileCloud
  • Filerio
  • FilesCdn
  • IndiShare
  • Kbagi
  • Turbobit
  • UpToBox
  • Uppit
, Part2
  • BdUpload
  • DownAce
  • Fichier
  • FileCloud
  • Filerio
  • FilesCdn
  • IndiShare
  • Kbagi
  • Turbobit
  • UpToBox
  • Uppit
, Part3
  • BdUpload
  • DownAce
  • Fichier
  • FileCloud
  • Filerio
  • FilesCdn
  • IndiShare
  • Kbagi
  • Turbobit
  • UpToBox
  • Uppit

ZippyShare: Part1, Part2, Part3
HashesCRC32: 859274A1, MD5: B3B538F1BBF2FEA100DD479353395E42, SHA1: 2198FC825783B7060A8AD5433EA8331C158CBBEF, SHA256: 730BA95CB2214093FD544A227AF01EB5BD4A4998E6FCD1BF713A17A738FCB626, ED2K: B89817E2FBA37A5C41E04555C746B117
Screenshots
screenshotscreenshotscreenshotscreenshotscreenshot
Additional Info
General
Complete name                            : [Yameii] Restaurant to Another World 2 - 12 [English Dub] [WEB-DL 1080p] [859274A1].mkv
Format                                   : Matroska
Format version                           : Version 4
File size                                : 1 018 MiB
Duration                                 : 23 min 42 s
Overall bit rate                         : 6 003 kb/s
Writing application                      : NULL
Writing library                          : NULL

Video
ID                                       : 1
Format                                   : AVC
Format/Info                              : Advanced Video Codec
Format profile                           : High@L4
Format settings                          : CABAC / 3 Ref Frames
Format settings, CABAC                   : Yes
Format settings, Reference frames        : 3 frames
Codec ID                                 : V_MPEG4/ISO/AVC
Duration                                 : 23 min 42 s
Bit rate                                 : 5 744 kb/s
Width                                    : 1 920 pixels
Height                                   : 1 080 pixels
Display aspect ratio                     : 16:9
Frame rate mode                          : Constant
Frame rate                               : 23.976 (24000/1001) FPS
Color space                              : YUV
Chroma subsampling                       : 4:2:0
Bit depth                                : 8 bits
Scan type                                : Progressive
Bits/(Pixel*Frame)                       : 0.116
Stream size                              : 974 MiB (96%)
Title                                    : Funimation WEB-DL
Default                                  : Yes
Forced                                   : No
Color range                              : Limited
Matrix coefficients                      : BT.709

Audio
ID                                       : 2
Format                                   : AAC LC
Format/Info                              : Advanced Audio Codec Low Complexity
Codec ID                                 : A_AAC-2
Duration                                 : 23 min 42 s
Bit rate                                 : 256 kb/s
Channel(s)                               : 2 channels
Channel layout                           : L R
Sampling rate                            : 48.0 kHz
Frame rate                               : 46.875 FPS (1024 SPF)
Compression mode                         : Lossy
Stream size                              : 43.4 MiB (4%)
Title                                    : English Dub
Language                                 : English
Default                                  : Yes
Forced                                   : No
beta
Anime DDL+NZB mirror
Current Time: 23/02/2024 00:06



About/FAQs

Discord