File Size0.984 GB (1,056,244,696 bytes)
DownloadClickNUpload | DownloadGG
MultiUp: Part1
  • BdUpload
  • DownAce
  • Fichier
  • FileCloud
  • Filerio
  • FilesCdn
  • IndiShare
  • Kbagi
  • Turbobit
  • UpToBox
  • Uppit
, Part2
  • BdUpload
  • DownAce
  • Fichier
  • FileCloud
  • Filerio
  • FilesCdn
  • IndiShare
  • Kbagi
  • Turbobit
  • UpToBox
  • Uppit
, Part3
  • BdUpload
  • DownAce
  • Fichier
  • FileCloud
  • Filerio
  • FilesCdn
  • IndiShare
  • Kbagi
  • Turbobit
  • UpToBox
  • Uppit

ZippyShare: Part1, Part2, Part3
HashesCRC32: A6F85FE8, MD5: 26B8A0EC05F1E508F3D94A302D0208F9, SHA1: 76B0F9776B62D8DA6E6F3E08642A23B10EA2EDD8, SHA256: 1F176C93FD3FF96C0AC66830E9251CADF269188A990C4DCDAA28122ED35091F4, ED2K: C3D787CC2EC4C8ECAA22534479D37E72
Screenshots
screenshotscreenshotscreenshotscreenshotscreenshot
SubtitlesAll Attachments | English Closed Captions [eng, ASS]
Additional Info
General
Complete name                            : [Yameii] Restaurant to Another World 2 - 07 [English Dub] [WEB-DL 1080p] [A6F85FE8].mkv
Format                                   : Matroska
Format version                           : Version 4
File size                                : 1 007 MiB
Duration                                 : 23 min 57 s
Overall bit rate                         : 5 880 kb/s
Writing application                      : NULL
Writing library                          : NULL

Video
ID                                       : 1
Format                                   : AVC
Format/Info                              : Advanced Video Codec
Format profile                           : High@L4
Format settings                          : CABAC / 3 Ref Frames
Format settings, CABAC                   : Yes
Format settings, Reference frames        : 3 frames
Codec ID                                 : V_MPEG4/ISO/AVC
Duration                                 : 23 min 56 s
Bit rate                                 : 5 622 kb/s
Width                                    : 1 920 pixels
Height                                   : 1 080 pixels
Display aspect ratio                     : 16:9
Frame rate mode                          : Constant
Frame rate                               : 23.976 (24000/1001) FPS
Color space                              : YUV
Chroma subsampling                       : 4:2:0
Bit depth                                : 8 bits
Scan type                                : Progressive
Bits/(Pixel*Frame)                       : 0.113
Stream size                              : 963 MiB (96%)
Title                                    : Funimation WEB-DL
Default                                  : Yes
Forced                                   : No
Color range                              : Limited
Matrix coefficients                      : BT.709

Audio
ID                                       : 2
Format                                   : AAC LC
Format/Info                              : Advanced Audio Codec Low Complexity
Codec ID                                 : A_AAC-2
Duration                                 : 23 min 57 s
Bit rate                                 : 256 kb/s
Channel(s)                               : 2 channels
Channel layout                           : L R
Sampling rate                            : 48.0 kHz
Frame rate                               : 46.875 FPS (1024 SPF)
Compression mode                         : Lossy
Stream size                              : 43.9 MiB (4%)
Title                                    : English Dub
Language                                 : English
Default                                  : Yes
Forced                                   : No

Text
ID                                       : 3
Format                                   : ASS
Codec ID                                 : S_TEXT/ASS
Codec ID/Info                            : Advanced Sub Station Alpha
Duration                                 : 20 min 23 s
Bit rate                                 : 155 b/s
Count of elements                        : 447
Compression mode                         : Lossless
Stream size                              : 23.3 KiB (0%)
Title                                    : English Closed Captions
Language                                 : English
Default                                  : Yes
Forced                                   : No
beta
Anime DDL+NZB mirror
Current Time: 19/05/2022 23:40



About/FAQs

Discord