File Size397.6 MB (416,873,082 bytes)
DownloadClickNUpload | DownloadGG | MultiUp
  • BdUpload
  • DownAce
  • Fichier
  • FileCloud
  • Filerio
  • FilesCdn
  • IndiShare
  • Kbagi
  • Turbobit
  • UpToBox
  • Uppit
| ZippyShare
HashesCRC32: C2F9570C, MD5: 68218865AB529294DA1D21997ECCBB7B, SHA1: 4F217B6D6F013B5B948F62E71E02438EEB68B65A, SHA256: 9C7E55B6B0432F8364CF2A24DFCB2BB86A18C3C22AEBB134A0BB07B13B7F4EB4, ED2K: C744D8D95B77919AFB2903961D920037
Screenshots
screenshotscreenshotscreenshotscreenshotscreenshot
SubtitlesAll Attachments | English Closed Captions [eng, ASS]
Additional Info
General
Complete name                            : [Yameii] Ranking of Kings - 19 [English Dub] [WEB-DL 720p] [C2F9570C].mkv
Format                                   : Matroska
Format version                           : Version 4
File size                                : 398 MiB
Duration                                 : 23 min 2 s
Overall bit rate                         : 2 413 kb/s
Writing application                      : NULL
Writing library                          : NULL

Video
ID                                       : 1
Format                                   : AVC
Format/Info                              : Advanced Video Codec
Format profile                           : High@L4
Format settings                          : CABAC / 3 Ref Frames
Format settings, CABAC                   : Yes
Format settings, Reference frames        : 3 frames
Codec ID                                 : V_MPEG4/ISO/AVC
Duration                                 : 23 min 1 s
Bit rate                                 : 2 155 kb/s
Width                                    : 1 280 pixels
Height                                   : 720 pixels
Display aspect ratio                     : 16:9
Frame rate mode                          : Constant
Frame rate                               : 23.976 (24000/1001) FPS
Color space                              : YUV
Chroma subsampling                       : 4:2:0
Bit depth                                : 8 bits
Scan type                                : Progressive
Bits/(Pixel*Frame)                       : 0.098
Stream size                              : 355 MiB (89%)
Title                                    : Funimation WEB-DL
Default                                  : Yes
Forced                                   : No
Color range                              : Limited
Matrix coefficients                      : BT.709

Audio
ID                                       : 2
Format                                   : AAC LC
Format/Info                              : Advanced Audio Codec Low Complexity
Codec ID                                 : A_AAC-2
Duration                                 : 23 min 2 s
Bit rate                                 : 256 kb/s
Channel(s)                               : 2 channels
Channel layout                           : L R
Sampling rate                            : 48.0 kHz
Frame rate                               : 46.875 FPS (1024 SPF)
Compression mode                         : Lossy
Stream size                              : 42.2 MiB (11%)
Title                                    : English Dub
Language                                 : English
Default                                  : Yes
Forced                                   : No

Text
ID                                       : 3
Format                                   : ASS
Codec ID                                 : S_TEXT/ASS
Codec ID/Info                            : Advanced Sub Station Alpha
Duration                                 : 21 min 1 s
Bit rate                                 : 97 b/s
Count of elements                        : 342
Compression mode                         : Lossless
Stream size                              : 15.0 KiB (0%)
Title                                    : English Closed Captions
Language                                 : English
Default                                  : Yes
Forced                                   : No
beta
Anime DDL+NZB mirror
Current Time: 23/05/2024 06:38



About/FAQs

Discord