File Size424.0 MB (444,599,272 bytes)
DownloadClickNUpload | DownloadGG | KrakenFiles | MultiUp
  • BdUpload
  • DownAce
  • Fichier
  • FileCloud
  • Filerio
  • FilesCdn
  • IndiShare
  • Kbagi
  • Turbobit
  • UpToBox
  • Uppit
| ZippyShare
HashesCRC32: F73EE8FE, MD5: F45FAF02B21422F8BC3DCA00E50C697F, SHA1: AF3041DD7CBD92A4B5F538CEFD54A96EFEDF35FF, SHA256: 287837F89E951C53072CB21D98FA0955248E0BA22567DC1D3B56621F15CFA6F5, ED2K: 01817D9B9F077A539F8539866A1018E1
Screenshots
screenshotscreenshotscreenshotscreenshotscreenshot
Additional Info
General
Complete name                            : [Yameii] Kaguya-sama - Love Is War -Ultra Romantic- - 04 [English Dub] [WEB-DL 720p] [F73EE8FE].mkv
Format                                   : Matroska
Format version                           : Version 4
File size                                : 424 MiB
Duration                                 : 24 min 12 s
Overall bit rate                         : 2 449 kb/s
Writing application                      : NULL
Writing library                          : NULL

Video
ID                                       : 1
Format                                   : AVC
Format/Info                              : Advanced Video Codec
Format profile                           : High@L4
Format settings                          : CABAC / 3 Ref Frames
Format settings, CABAC                   : Yes
Format settings, Reference frames        : 3 frames
Codec ID                                 : V_MPEG4/ISO/AVC
Duration                                 : 24 min 12 s
Bit rate                                 : 2 191 kb/s
Width                                    : 1 280 pixels
Height                                   : 720 pixels
Display aspect ratio                     : 16:9
Frame rate mode                          : Constant
Frame rate                               : 23.976 (24000/1001) FPS
Color space                              : YUV
Chroma subsampling                       : 4:2:0
Bit depth                                : 8 bits
Scan type                                : Progressive
Bits/(Pixel*Frame)                       : 0.099
Stream size                              : 379 MiB (89%)
Title                                    : Funimation WEB-DL
Default                                  : Yes
Forced                                   : No
Color range                              : Limited
Matrix coefficients                      : BT.709

Audio
ID                                       : 2
Format                                   : AAC LC
Format/Info                              : Advanced Audio Codec Low Complexity
Codec ID                                 : A_AAC-2
Duration                                 : 24 min 12 s
Bit rate                                 : 256 kb/s
Channel(s)                               : 2 channels
Channel layout                           : L R
Sampling rate                            : 48.0 kHz
Frame rate                               : 46.875 FPS (1024 SPF)
Compression mode                         : Lossy
Stream size                              : 44.3 MiB (10%)
Title                                    : English Dub
Language                                 : English
Default                                  : Yes
Forced                                   : No
beta
Anime DDL+NZB mirror
Current Time: 05/07/2022 13:35



About/FAQs

Discord