File Size1.060 GB (1,138,283,258 bytes)
DownloadClickNUpload | GoFile | MdiaLoad
DownloadGG: Part1, Part2
KrakenFiles: Part1, Part2
MultiUp: Part1
  • BdUpload
  • DownAce
  • Fichier
  • FileCloud
  • Filerio
  • FilesCdn
  • IndiShare
  • Kbagi
  • Turbobit
  • UpToBox
  • Uppit
, Part2
  • BdUpload
  • DownAce
  • Fichier
  • FileCloud
  • Filerio
  • FilesCdn
  • IndiShare
  • Kbagi
  • Turbobit
  • UpToBox
  • Uppit
, Part3
  • BdUpload
  • DownAce
  • Fichier
  • FileCloud
  • Filerio
  • FilesCdn
  • IndiShare
  • Kbagi
  • Turbobit
  • UpToBox
  • Uppit
HashesCRC32: D7F92D09, MD5: 988D042A3A9A63129B658447E9B625B0, SHA1: 40693D14B09A3BED66DF6CA6937FB5EB3BAF0B88, SHA256: 69DF22F4E89F4B6CE8A3B8C5CFC28D714586D096692061FF5D6999FE6AAC33CE, ED2K: 9434BEF6D4843C5E4A3F6292DB4399C6
Screenshots
screenshotscreenshotscreenshotscreenshotscreenshot
SubtitlesAll Attachments | English Closed Captions [eng, ASS]
Additional Info
General
Complete name                            : [Yameii] The Duke of Death and His Maid - S02E10 [English Dub] [FUNi WEB-DL 1080p] [D7F92D09].mkv
Format                                   : Matroska
Format version                           : Version 4
File size                                : 1.06 GiB
Duration                                 : 23 min 47 s
Overall bit rate                         : 6 381 kb/s
Writing application                      : NULL
Writing library                          : NULL / Lavf58.29.100

Video
ID                                       : 1
Format                                   : AVC
Format/Info                              : Advanced Video Codec
Format profile                           : High@L4
Format settings                          : CABAC / 3 Ref Frames
Format settings, CABAC                   : Yes
Format settings, Reference frames        : 3 frames
Codec ID                                 : V_MPEG4/ISO/AVC
Duration                                 : 23 min 47 s
Bit rate                                 : 6 122 kb/s
Width                                    : 1 920 pixels
Height                                   : 1 080 pixels
Display aspect ratio                     : 16:9
Frame rate mode                          : Constant
Frame rate                               : 23.976 (24000/1001) FPS
Color space                              : YUV
Chroma subsampling                       : 4:2:0
Bit depth                                : 8 bits
Scan type                                : Progressive
Bits/(Pixel*Frame)                       : 0.123
Stream size                              : 1.02 GiB (96%)
Title                                    : Funimation WEB-DL
Default                                  : Yes
Forced                                   : No
Color range                              : Limited
Matrix coefficients                      : BT.709

Audio
ID                                       : 2
Format                                   : AAC LC
Format/Info                              : Advanced Audio Codec Low Complexity
Codec ID                                 : A_AAC-2
Duration                                 : 23 min 47 s
Bit rate                                 : 256 kb/s
Channel(s)                               : 2 channels
Channel layout                           : L R
Sampling rate                            : 48.0 kHz
Frame rate                               : 46.875 FPS (1024 SPF)
Compression mode                         : Lossy
Stream size                              : 43.6 MiB (4%)
Title                                    : English Dub
Language                                 : English
Default                                  : Yes
Forced                                   : No

Text
ID                                       : 3
Format                                   : ASS
Codec ID                                 : S_TEXT/ASS
Codec ID/Info                            : Advanced Sub Station Alpha
Duration                                 : 23 min 37 s
Bit rate                                 : 148 b/s
Count of elements                        : 520
Compression mode                         : Lossless
Stream size                              : 25.8 KiB (0%)
Title                                    : English Closed Captions
Language                                 : English
Default                                  : Yes
Forced                                   : No
beta
Anime DDL+NZB mirror
Current Time: 18/05/2024 18:43



About/FAQs

Discord