File Size634.1 MB (664,859,776 bytes)
DownloadClickNUpload | DownloadGG | GoFile | KrakenFiles | MdiaLoad
MultiUp: Part1
  • BdUpload
  • DownAce
  • Fichier
  • FileCloud
  • Filerio
  • FilesCdn
  • IndiShare
  • Kbagi
  • Turbobit
  • UpToBox
  • Uppit
, Part2
  • BdUpload
  • DownAce
  • Fichier
  • FileCloud
  • Filerio
  • FilesCdn
  • IndiShare
  • Kbagi
  • Turbobit
  • UpToBox
  • Uppit
HashesCRC32: E820F776, MD5: 92AD8BBB19C46B6B39CF4C2E44DB8D43, SHA1: 5D76009A12F9FBA88B9B9E42855B75F7FE4375F2, SHA256: A466ABC45D20840265D51FD8A16DB9CC136CCF54A1E6651A3D6927A5644C8E86, ED2K: 418298E14DB117E55AA8693DC41FAA62
Screenshots
screenshotscreenshotscreenshotscreenshotscreenshot
Additional Info
General
Complete name                            : [Yameii] Bungo Stray Dogs - S05E10 [English Dub] [FUNi WEB-DL 720p] [E820F776].mkv
Format                                   : Matroska
Format version                           : Version 4
File size                                : 634 MiB
Duration                                 : 23 min 47 s
Overall bit rate                         : 3 727 kb/s
Writing application                      : NULL
Writing library                          : NULL / Lavf58.29.100

Video
ID                                       : 1
Format                                   : AVC
Format/Info                              : Advanced Video Codec
Format profile                           : High@L4
Format settings                          : CABAC / 3 Ref Frames
Format settings, CABAC                   : Yes
Format settings, Reference frames        : 3 frames
Codec ID                                 : V_MPEG4/ISO/AVC
Duration                                 : 23 min 47 s
Bit rate                                 : 3 469 kb/s
Width                                    : 1 280 pixels
Height                                   : 720 pixels
Display aspect ratio                     : 16:9
Frame rate mode                          : Constant
Frame rate                               : 23.976 (24000/1001) FPS
Color space                              : YUV
Chroma subsampling                       : 4:2:0
Bit depth                                : 8 bits
Scan type                                : Progressive
Bits/(Pixel*Frame)                       : 0.157
Stream size                              : 590 MiB (93%)
Title                                    : Funimation WEB-DL
Default                                  : Yes
Forced                                   : No
Color range                              : Limited
Matrix coefficients                      : BT.709

Audio
ID                                       : 2
Format                                   : AAC LC
Format/Info                              : Advanced Audio Codec Low Complexity
Codec ID                                 : A_AAC-2
Duration                                 : 23 min 47 s
Bit rate                                 : 256 kb/s
Channel(s)                               : 2 channels
Channel layout                           : L R
Sampling rate                            : 48.0 kHz
Frame rate                               : 46.875 FPS (1024 SPF)
Compression mode                         : Lossy
Stream size                              : 43.6 MiB (7%)
Title                                    : English Dub
Language                                 : English
Default                                  : Yes
Forced                                   : No
beta
Anime DDL+NZB mirror
Current Time: 13/07/2024 13:39



About/FAQs

Discord