[YakuboEncodes] Detective Conan - Episode One - The Great Detective Turned Small [BD 1080p][10bit][x265 HEVC][Opus][KienaiSubs].mkv


File Size1.444 GB (1,550,069,447 bytes)
DownloadClickNUpload | Jheberg
MultiUp: Part1
  • BdUpload
  • DownAce
  • Fichier
  • FileCloud
  • Filerio
  • FilesCdn
  • IndiShare
  • Kbagi
  • Turbobit
  • UpToBox
  • Uppit
, Part2
  • BdUpload
  • DownAce
  • Fichier
  • FileCloud
  • Filerio
  • FilesCdn
  • IndiShare
  • Kbagi
  • Turbobit
  • UpToBox
  • Uppit
, Part3
  • BdUpload
  • DownAce
  • Fichier
  • FileCloud
  • Filerio
  • FilesCdn
  • IndiShare
  • Kbagi
  • Turbobit
  • UpToBox
  • Uppit

Sendspace: Part1, Part2, Part3, Part4, Part5
SolidFiles: Part1, Part2, Part3
ZippyShare: Part1, Part2, Part3
HashesCRC32: 34640B80, MD5: C5D54549429E92DF874EE418438F328A, SHA1: C48146B4FA4A5F1AB07C79AA350B1C797BE69445, SHA256: CB53807F9721F0EC15804EF0CD2763A0B41F20A345448FF29EB00A735B7E3F8E, ED2K: 0C5635FCC5E08B1E62A760EB0E2883F9
Screenshots
screenshotscreenshotscreenshotscreenshotscreenshot
SubtitlesAll Attachments | eng [ASS]
Additional Info
General
Unique ID                                : 69252584774487569605773579354246032846 (0x3419900B6CF11B1267511D6E175D2DCE)
Complete name                            : [YakuboEncodes] Detective Conan - Episode One - The Great Detective Turned Small [BD 1080p][10bit][x265 HEVC][Opus][KienaiSubs].mkv
Format                                   : Matroska
Format version                           : Version 4
File size                                : 1.44 GiB
Duration                                 : 1 h 35 min
Overall bit rate                         : 2 162 kb/s
Writing application                      : Lavf58.29.100
Writing library                          : Lavf58.29.100
ErrorDetectionType                       : Per level 1
Attachments                              : GILSANUB.TTF / HEADOH.TTF / Helvetica LT 45 Light.ttf / Helvetica LT 46 Light Italic.ttf / Helvetica LT 55 Roman.ttf / HoratioDMed.ttf / hu521xbc.ttf / Interstate-BoldCompressed.ttf / KozMinPr6N-H.ttf / LTe53507.ttf / LTe53508.ttf / LTe53510.ttf / Minimal_SF_Bold_Italic.ttf / MixStitch.ttf / MyriadPro-SemiboldSemiCn.otf / palab.ttf / palabi.ttf / POORICH.TTF / PoplarStd.otf / PTSans_bold.ttf / RifficFree-Bold.ttf / seguiemj.ttf / seguisym.ttf / Speedline.ttf / thegirlnextdoor.ttf / times.ttf / timesbd.ttf / TT0202M.TTF / vijaya.ttf / You're So Cool - TTF.ttf / 11335.ttf / AdobeDevanagari-Regular.otf / AdobeFanHeitiStd-Bold.otf / Alberta Bold.ttf / Alberta_Italic.ttf / ANNA.ttf / A-OTF-ShinGoPro-DeBold.otf / ARIALNB.TTF / BLKCHCRY.TTF / comic2.ttf / Felt Tip Roman.ttf / FOT-MatisseMinoriProB-En.otf / Fun Smiles.ttf / GARA.TTF / GARABD.TTF / GIL_____.TTF

Video
ID                                       : 1
Format                                   : HEVC
Format/Info                              : High Efficiency Video Coding
Format profile                           : Main 10@L4@Main
Codec ID                                 : V_MPEGH/ISO/HEVC
Duration                                 : 1 h 35 min
Bit rate                                 : 13.7 Mb/s
Width                                    : 1 920 pixels
Height                                   : 1 080 pixels
Display aspect ratio                     : 16:9
Frame rate mode                          : Variable
Frame rate                               : 23.976 FPS
Color space                              : YUV
Chroma subsampling                       : 4:2:0
Bit depth                                : 10 bits
Bits/(Pixel*Frame)                       : 0.275
Stream size                              : 9.12 GiB
Writing library                          : x265 3.2:[Linux][GCC 7.4.0][64 bit] 10bit
Encoding settings                        : cpuid=1111039 / frame-threads=3 / wpp / no-pmode / no-pme / no-psnr / no-ssim / log-level=2 / input-csp=1 / input-res=1920x1080 / interlace=0 / total-frames=0 / level-idc=0 / high-tier=1 / uhd-bd=0 / ref=3 / no-allow-non-conformance / no-repeat-headers / annexb / no-aud / no-hrd / info / hash=0 / no-temporal-layers / open-gop / min-keyint=23 / keyint=250 / gop-lookahead=0 / bframes=4 / b-adapt=2 / b-pyramid / bframe-bias=0 / rc-lookahead=20 / lookahead-slices=6 / scenecut=40 / radl=0 / no-splice / no-intra-refresh / ctu=64 / min-cu-size=8 / no-rect / no-amp / max-tu-size=32 / tu-inter-depth=1 / tu-intra-depth=1 / limit-tu=0 / rdoq-level=0 / dynamic-rd=0.00 / no-ssim-rd / signhide / no-tskip / nr-intra=0 / nr-inter=0 / no-constrained-intra / strong-intra-smoothing / max-merge=3 / limit-refs=1 / no-limit-modes / me=1 / subme=2 / merange=57 / temporal-mvp / no-hme / weightp / no-weightb / no-analyze-src-pics / deblock=0:0 / sao / no-sao-non-deblock / rd=3 / selective-sao=4 / early-skip / rskip / no-fast-intra / no-tskip-fast / no-cu-lossless / b-intra / no-splitrd-skip / rdpenalty=0 / psy-rd=2.00 / psy-rdoq=0.00 / no-rd-refine / no-lossless / cbqpoffs=0 / crqpoffs=0 / rc=crf / crf=20.0 / qcomp=0.60 / qpstep=4 / stats-write=0 / stats-read=0 / ipratio=1.40 / pbratio=1.30 / aq-mode=2 / aq-strength=1.00 / cutree / zone-count=0 / no-strict-cbr / qg-size=32 / no-rc-grain / qpmax=69 / qpmin=0 / no-const-vbv / sar=1 / overscan=0 / videoformat=5 / range=0 / colorprim=2 / transfer=2 / colormatrix=2 / chromaloc=0 / display-window=0 / cll=0,0 / min-luma=0 / max-luma=1023 / log2-max-poc-lsb=8 / vui-timing-info / vui-hrd-info / slices=1 / no-opt-qp-pps / no-opt-ref-list-length-pps / no-multi-pass-opt-rps / scenecut-bias=0.05 / no-opt-cu-delta-qp / no-aq-motion / no-hdr / no-hdr-opt / no-dhdr10-opt / no-idr-recovery-sei / analysis-reuse-level=5 / scale-factor=0 / refine-intra=0 / refine-inter=0 / refine-mv=1 / refine-ctu-distortion=0 / no-limit-sao / ctu-info=0 / no-lowpass-dct / refine-analysis-type=0 / copy-pic=1 / max-ausize-factor=1.0 / no-dynamic-refine / no-single-sei / no-hevc-aq / no-svt / no-field / qp-adaptation-range=1.00
Language                                 : Japanese
Default                                  : Yes
Forced                                   : Yes
Color range                              : Limited

Audio
ID                                       : 2
Format                                   : Opus
Codec ID                                 : A_OPUS
Duration                                 : 1 h 35 min
Bit rate                                 : 1 298 kb/s
Channel(s)                               : 6 channels
Channel layout                           : L R C Ls Rs Cb LFE
Sampling rate                            : 48.0 kHz
Frame rate                               : 11.719 FPS (4096 SPF)
Bit depth                                : 16 bits
Compression mode                         : Lossy
Stream size                              : 887 MiB (60%)
Title                                    : 5.1
Writing library                          : Lavc58.54.100 libopus
Language                                 : Japanese
Default                                  : Yes
Forced                                   : No

Text
ID                                       : 3
Format                                   : ASS
Codec ID                                 : S_TEXT/ASS
Codec ID/Info                            : Advanced Sub Station Alpha
Duration                                 : 1 h 35 min
Bit rate                                 : 5 567 b/s
Count of elements                        : 9786
Compression mode                         : Lossless
Stream size                              : 3.80 MiB (0%)
Language                                 : English
Default                                  : Yes
Forced                                   : No

Menu
00:00:00.000                             : :Prologue
00:02:53.965                             : :OP1 - Mune ga Doki Doki (The Pounding of My Heart) (TV Size Version)
00:04:26.308                             : :Chapter 3
00:17:03.939                             : :Chapter 4
00:37:54.939                             : :Chapter 5
00:39:05.426                             : :OP4 - Unmei no Roulette Mawashite (Spin the Roulette of Destiny) (Episode "ONE" Special Version)
00:41:03.628                             : :Chapter 7
01:02:54.937                             : :Chapter 8
01:27:47.387                             : :Two Months Later (Epilogue)
01:31:20.975                             : :OP1 - Mune ga Doki Doki (The Pounding of My Heart) (Full Version)
beta
Anime DDL+NZB mirror
Current Time: 20/04/2021 13:36



About/FAQs