This file has been deleted.
File Size91.04 MB (95,461,756 bytes)
DownloadClickNUpload | DownloadGG | DropAPK | MultiUp
  • BdUpload
  • DownAce
  • Fichier
  • FileCloud
  • Filerio
  • FilesCdn
  • IndiShare
  • Kbagi
  • Turbobit
  • UpToBox
  • Uppit
| ZippyShare
HashesCRC32: D911C2F5, MD5: 2AABC6C10A24E12E2AD3D1628FC1B2DD, SHA1: 6FD4A784FACC09DBC9D2787CA8B492CD73B4161F, SHA256: 4EFF8FAE31CE4FDB4A589EF830717A470A216C51261328619760359B6FE05521, ED2K: D421916F3D398E4747C721EE1B020862
Screenshots
screenshotscreenshot
SubtitlesAll Attachments | spa [ASS]
Additional Info
General
Unique ID                                : 220795975730483917797724662205671642409 (0xA61BC2148AE11E87C695A2826FA99529)
Complete name                            : [wisamalsharifi] Deji Meets Girl - 02 [1080p].mkv
Format                                   : Matroska
Format version                           : Version 4
File size                                : 91.0 MiB
Duration                                 : 2 min 2 s
Overall bit rate                         : 6 256 kb/s
Movie name                               : [wisamalsharifi] Deji Meets Girl - 02 [1080p]
Encoded date                             : UTC 2021-10-09 13:38:54
Writing application                      : mkvmerge v44.0.0 ('Domino') 64-bit
Writing library                          : libebml v1.3.10 + libmatroska v1.5.2
Attachments                              : HARIR-BOLD.OTF / AR CENA_0.TTF / H_ESFAHAN.TTF / AFSANEH_5.TTF / F-DOHA.TTF / Harukaze.ttf / Itim-Regular.ttf / FredokaOne-Regular.ttf

Video
ID                                       : 2
Format                                   : AVC
Format/Info                              : Advanced Video Codec
Format profile                           : High@L4
Format settings                          : CABAC / 4 Ref Frames
Format settings, CABAC                   : Yes
Format settings, ReFrames                : 4 frames
Codec ID                                 : V_MPEG4/ISO/AVC
Duration                                 : 2 min 1 s
Bit rate                                 : 5 864 kb/s
Width                                    : 1 920 pixels
Height                                   : 1 080 pixels
Display aspect ratio                     : 16:9
Frame rate mode                          : Constant
Frame rate                               : 23.976 (24000/1001) FPS
Color space                              : YUV
Chroma subsampling                       : 4:2:0
Bit depth                                : 8 bits
Scan type                                : Progressive
Bits/(Pixel*Frame)                       : 0.118
Stream size                              : 85.3 MiB (94%)
Writing library                          : BiliBili H264 Encoder v1.0
Default                                  : Yes
Forced                                   : No
Color range                              : Limited
Color primaries                          : BT.709
Transfer characteristics                 : BT.709
Matrix coefficients                      : BT.709

Audio
ID                                       : 3
Format                                   : AAC LC
Format/Info                              : Advanced Audio Codec Low Complexity
Codec ID                                 : A_AAC-2
Duration                                 : 2 min 2 s
Bit rate                                 : 315 kb/s
Channel(s)                               : 2 channels
Channel layout                           : L R
Sampling rate                            : 48.0 kHz
Frame rate                               : 46.875 FPS (1024 SPF)
Compression mode                         : Lossy
Stream size                              : 4.58 MiB (5%)
Language                                 : Spanish
Default                                  : Yes
Forced                                   : No

Text
ID                                       : 1
Format                                   : ASS
Codec ID                                 : S_TEXT/ASS
Codec ID/Info                            : Advanced Sub Station Alpha
Duration                                 : 1 min 56 s
Bit rate                                 : 7 210 b/s
Count of elements                        : 650
Compression mode                         : Lossless
Stream size                              : 102 KiB (0%)
Language                                 : Spanish
Default                                  : Yes
Forced                                   : No
beta
Anime DDL+NZB mirror
Current Time: 06/12/2021 14:23



About/FAQs

Discord