[whocares] Doraemon (2005) - 402 [91FF18B0].mkv


File Size238.6 MB (250,147,707 bytes)
DownloadGo4Up | Jheberg | MultiUp | OpenLoad | Sendspace | SolidFiles | UsersCloud
HashesCRC32: 91FF18B0, MD5: C571ADC93A34DFC203041845EEC0C5A9, SHA1: 8E4D6DCD275EF6D6E6E9C2025E0D68A78FDD6458, SHA256: 9016050D87066E8F5021F38448837ED8C547A36AE5EDED5B22F0B655775C2F8A, ED2K: C5AF98658B5687BB852AE9778A075F39
Screenshots
screenshotscreenshotscreenshotscreenshotscreenshot
SubtitlesAll Attachments | eng [ASS]
Additional Info
General
Unique ID                                : 237215561866510539059490336753645730605 (0xB2760E2DDD4AD2148C2A26AD124B3B2D)
Complete name                            : [whocares] Doraemon (2005) - 402 [91FF18B0].mkv
Format                                   : Matroska
Format version                           : Version 4 / Version 2
File size                                : 239 MiB
Duration                                 : 24 min 54 s
Overall bit rate                         : 1 339 kb/s
Encoded date                             : UTC 2017-01-16 22:53:23
Writing application                      : mkvmerge v7.3.0 ('Nouages') 32bit built on Oct 22 2014 18:44:01
Writing library                          : libebml v1.3.0 + libmatroska v1.4.1
Attachments                              : AMARANTH-BOLD.TTF / AMARANTH-BOLDITALIC.TTF / AMARANTH-ITALIC.TTF / AMARANTH-REGULAR.TTF

Video
ID                                       : 2
Format                                   : AVC
Format/Info                              : Advanced Video Codec
Format profile                           : High@L5
Format settings, CABAC                   : Yes
Format settings, ReFrames                : 16 frames
Codec ID                                 : V_MPEG4/ISO/AVC
Duration                                 : 24 min 54 s
Bit rate                                 : 1 143 kb/s
Width                                    : 1 280 pixels
Height                                   : 720 pixels
Display aspect ratio                     : 16:9
Frame rate mode                          : Constant
Frame rate                               : 23.976 (24000/1001) FPS
Color space                              : YUV
Chroma subsampling                       : 4:2:0
Bit depth                                : 8 bits
Scan type                                : Progressive
Bits/(Pixel*Frame)                       : 0.052
Stream size                              : 204 MiB (85%)
Writing library                          : x264 core 146
Encoding settings                        : opencl=1 / cabac=1 / ref=16 / deblock=1:1:1 / analyse=0x3:0x133 / me=tesa / subme=11 / psy=1 / psy_rd=0.40:0.00 / mixed_ref=1 / me_range=24 / chroma_me=1 / trellis=2 / 8x8dct=1 / cqm=0 / deadzone=21,11 / fast_pskip=0 / chroma_qp_offset=-2 / threads=12 / lookahead_threads=3 / sliced_threads=0 / nr=0 / decimate=1 / interlaced=0 / bluray_compat=0 / constrained_intra=0 / bframes=16 / b_pyramid=2 / b_adapt=2 / b_bias=0 / direct=3 / weightb=1 / open_gop=0 / weightp=2 / keyint=250 / keyint_min=23 / scenecut=40 / intra_refresh=0 / rc_lookahead=60 / rc=crf / mbtree=1 / crf=19.3 / qcomp=0.60 / qpmin=0 / qpmax=69 / qpstep=4 / ip_ratio=1.40 / aq=1:0.00
Default                                  : Yes
Forced                                   : No

Audio
ID                                       : 3
Format                                   : AAC
Format/Info                              : Advanced Audio Codec
Format profile                           : LC
Codec ID                                 : A_AAC
Duration                                 : 24 min 53 s
Bit rate                                 : 192 kb/s
Channel(s)                               : 2 channels
Channel positions                        : Front: L R
Sampling rate                            : 44.1 kHz
Frame rate                               : 43.066 FPS (1024 spf)
Compression mode                         : Lossy
Stream size                              : 34.2 MiB (14%)
Language                                 : Japanese
Default                                  : Yes
Forced                                   : No

Text
ID                                       : 1
Format                                   : ASS
Codec ID                                 : S_TEXT/ASS
Codec ID/Info                            : Advanced Sub Station Alpha
Duration                                 : 24 min 53 s
Bit rate                                 : 134 b/s
Count of elements                        : 493
Compression mode                         : Lossless
Stream size                              : 24.5 KiB (0%)
Language                                 : English
Default                                  : Yes
Forced                                   : No

Menu
00:00:00.000                             : :Intro
00:00:15.056                             : :Titlecard 1
00:00:20.020                             : :Earth Elevator
00:11:17.009                             : :Intermission 1
00:11:39.073                             : :Titlecard 2
00:11:43.994                             : :Pair Finding Leash Part 1
00:17:36.972                             : :Intermission 2
00:17:43.020                             : :Pair Finding Leash Part 2
00:22:47.032                             : :Ending Song: Paopao Dance
00:23:57.018                             : :Preview
beta
Anime DDL+NZB mirror
Current Time: 13/06/2024 04:30



About/FAQs

Discord