File Size1.105 GB (1,186,364,313 bytes)
DownloadClickNUpload | GoFile | MdiaLoad
DailyUploads: Part1, Part2
DownloadGG: Part1, Part2
KrakenFiles: Part1, Part2
MultiUp: Part1
  • BdUpload
  • DownAce
  • Fichier
  • FileCloud
  • Filerio
  • FilesCdn
  • IndiShare
  • Kbagi
  • Turbobit
  • UpToBox
  • Uppit
, Part2
  • BdUpload
  • DownAce
  • Fichier
  • FileCloud
  • Filerio
  • FilesCdn
  • IndiShare
  • Kbagi
  • Turbobit
  • UpToBox
  • Uppit
, Part3
  • BdUpload
  • DownAce
  • Fichier
  • FileCloud
  • Filerio
  • FilesCdn
  • IndiShare
  • Kbagi
  • Turbobit
  • UpToBox
  • Uppit

Uppit: Part1, Part2
HashesCRC32: 2746121B, MD5: 64F473115E05ADD3823FDD001E7AD7FC, SHA1: F9D51DF4B4CCF104FC118D520301A13B28A9CAAC, SHA256: 7C174DE6C5353884A10392EBD3A4CDF60345EF90FB4C6FAF970FBF1EF6F8F15E, ED2K: 2EF1E46989D0C301B50C528EB776CCC5
Screenshots
screenshotscreenshotscreenshotscreenshotscreenshot
SubtitlesAll Attachments | eng [ASS]
Additional Info
General
Unique ID                                : 7282306256665344948856839913072324186 (0x57A856B4AAB2F9E6790C52B365D6E5A)
Complete name                            : [wazato] Hokuto no Ken (1984) - 022 [REMASTERED] [DVD] [2746121B].mkv
Format                                   : Matroska
Format version                           : Version 4
File size                                : 1.10 GiB
Duration                                 : 24 min 10 s
Overall bit rate                         : 6 543 kb/s
Frame rate                               : 23.976 FPS
Encoded date                             : 2023-11-24 13:12:18 UTC
Writing application                      : mkvmerge v80.0 ('Roundabout') 64-bit
Writing library                          : libebml v1.4.4 + libmatroska v1.7.1
Attachments                              : CTMercuriusStd-Medium.otf / CTMercuriusStd-MediumItalic.otf / Marker Notes Italic.otf / Marker Notes.otf / CAC Moose.ttf / Lightning Bolt.ttf / SpeedBeast FREE.ttf / Starla.ttf

Video
ID                                       : 1
Format                                   : AVC
Format/Info                              : Advanced Video Codec
Format profile                           : High 10@L4
Format settings                          : CABAC / 16 Ref Frames
Format settings, CABAC                   : Yes
Format settings, Reference frames        : 16 frames
Codec ID                                 : V_MPEG4/ISO/AVC
Duration                                 : 24 min 10 s
Bit rate                                 : 6 029 kb/s
Width                                    : 720 pixels
Height                                   : 476 pixels
Display aspect ratio                     : 4:3
Original display aspect ratio            : 1.379
Frame rate mode                          : Constant
Frame rate                               : 23.976 (24000/1001) FPS
Standard                                 : NTSC
Color space                              : YUV
Chroma subsampling                       : 4:2:0
Bit depth                                : 10 bits
Scan type                                : Progressive
Bits/(Pixel*Frame)                       : 0.734
Stream size                              : 1.02 GiB (92%)
Writing library                          : x264 core 164 r3164 c196240
Encoding settings                        : cabac=1 / ref=16 / deblock=1:-2:-2 / analyse=0x3:0x133 / me=tesa / subme=11 / psy=1 / psy_rd=1.00:0.00 / mixed_ref=1 / me_range=24 / chroma_me=1 / trellis=2 / 8x8dct=1 / cqm=0 / deadzone=21,11 / fast_pskip=0 / chroma_qp_offset=-2 / threads=12 / lookahead_threads=3 / sliced_threads=0 / nr=0 / decimate=0 / interlaced=0 / bluray_compat=0 / constrained_intra=0 / bframes=16 / b_pyramid=2 / b_adapt=2 / b_bias=0 / direct=3 / weightb=1 / open_gop=0 / weightp=2 / keyint=240 / keyint_min=23 / scenecut=40 / intra_refresh=0 / rc_lookahead=240 / rc=crf / mbtree=1 / crf=14.0 / qcomp=0.60 / qpmin=0 / qpmax=81 / qpstep=4 / ip_ratio=1.40 / aq=3:0.50
Language                                 : Japanese
Default                                  : Yes
Forced                                   : No
Color range                              : Limited
Matrix coefficients                      : BT.470 System B/G

Audio
ID                                       : 2
Format                                   : AC-3
Format/Info                              : Audio Coding 3
Commercial name                          : Dolby Digital
Codec ID                                 : A_AC3
Duration                                 : 24 min 10 s
Bit rate mode                            : Constant
Bit rate                                 : 384 kb/s
Channel(s)                               : 2 channels
Channel layout                           : L R
Sampling rate                            : 48.0 kHz
Frame rate                               : 31.250 FPS (1536 SPF)
Compression mode                         : Lossy
Stream size                              : 66.4 MiB (6%)
Language                                 : Japanese
Service kind                             : Complete Main
Default                                  : Yes
Forced                                   : No

Text
ID                                       : 3
Format                                   : ASS
Codec ID                                 : S_TEXT/ASS
Codec ID/Info                            : Advanced Sub Station Alpha
Compression mode                         : Lossless
Language                                 : English
Default                                  : Yes
Forced                                   : No

Menu
00:00:00.000                             : en:Introduction
00:00:26.026                             : en:Opening Theme
00:01:59.119                             : en:Episode Title
00:02:13.050                             : en:Part A
00:12:17.737                             : en:Eyecatch
00:12:21.741                             : en:Part B
00:22:18.295                             : en:Next Episode Preview
00:22:38.315                             : en:Ending Theme
beta
Anime DDL+NZB mirror
Current Time: 20/07/2024 22:34



About/FAQs

Discord