File Size982.9 MB (1,030,669,817 bytes)
DownloadClickNUpload | DownloadGG | GoFile | KrakenFiles | MdiaLoad
MultiUp: Part1
  • BdUpload
  • DownAce
  • Fichier
  • FileCloud
  • Filerio
  • FilesCdn
  • IndiShare
  • Kbagi
  • Turbobit
  • UpToBox
  • Uppit
, Part2
  • BdUpload
  • DownAce
  • Fichier
  • FileCloud
  • Filerio
  • FilesCdn
  • IndiShare
  • Kbagi
  • Turbobit
  • UpToBox
  • Uppit
HashesCRC32: 911953DA, MD5: 43CE35C9A9643C4841363BAC01D290E2, SHA1: AEDD751CC536DE48D5E45B7171C98D206B86FD63, SHA256: 37586E1FBFD37712B91D006C54DB47DBBE7728B9D6E2AC4B93A81D20AF832D60, ED2K: 93173E83F8BDECC8EC91E89F4081661D
Screenshots
screenshotscreenshotscreenshotscreenshotscreenshot
SubtitlesAll Attachments | eng [ASS]
Additional Info
General
Unique ID                                : 155484020417491937282434731124160386239 (0x74F9221180CC7146347EB7A8632AD4BF)
Complete name                            : [wazato] Hokuto no Ken (1984) - 020 [REMASTERED] [DVD] [911953DA].mkv
Format                                   : Matroska
Format version                           : Version 4
File size                                : 983 MiB
Duration                                 : 24 min 10 s
Overall bit rate                         : 5 685 kb/s
Encoded date                             : UTC 2023-08-25 19:03:33
Writing application                      : mkvmerge v79.0 ('Funeral Pyres') 64-bit
Writing library                          : libebml v1.4.4 + libmatroska v1.7.1
Attachments                              : Marker Notes Italic.otf / Marker Notes.otf / CAC Moose.ttf / Lightning Bolt.ttf / SpeedBeast FREE.ttf / Starla.ttf / CTMercuriusStd-Medium.otf / CTMercuriusStd-MediumItalic.otf

Video
ID                                       : 1
Format                                   : AVC
Format/Info                              : Advanced Video Codec
Format profile                           : High 10@L4
Format settings                          : CABAC / 16 Ref Frames
Format settings, CABAC                   : Yes
Format settings, Reference frames        : 16 frames
Codec ID                                 : V_MPEG4/ISO/AVC
Duration                                 : 24 min 10 s
Bit rate                                 : 5 188 kb/s
Width                                    : 720 pixels
Height                                   : 476 pixels
Display aspect ratio                     : 4:3
Original display aspect ratio            : 1.379
Frame rate mode                          : Constant
Frame rate                               : 23.976 (24000/1001) FPS
Standard                                 : NTSC
Color space                              : YUV
Chroma subsampling                       : 4:2:0
Bit depth                                : 10 bits
Scan type                                : Progressive
Bits/(Pixel*Frame)                       : 0.631
Stream size                              : 897 MiB (91%)
Writing library                          : x264 core 164 r3107 a8b68eb
Encoding settings                        : cabac=1 / ref=16 / deblock=1:0:-1 / analyse=0x3:0x133 / me=tesa / subme=10 / psy=1 / psy_rd=1.00:0.00 / mixed_ref=1 / me_range=24 / chroma_me=1 / trellis=2 / 8x8dct=1 / cqm=0 / deadzone=21,11 / fast_pskip=0 / chroma_qp_offset=-2 / threads=12 / lookahead_threads=3 / sliced_threads=0 / nr=0 / decimate=0 / interlaced=0 / bluray_compat=0 / constrained_intra=0 / bframes=16 / b_pyramid=2 / b_adapt=2 / b_bias=0 / direct=3 / weightb=1 / open_gop=0 / weightp=2 / keyint=240 / keyint_min=23 / scenecut=40 / intra_refresh=0 / rc_lookahead=60 / rc=crf / mbtree=1 / crf=13.5 / qcomp=0.60 / qpmin=0 / qpmax=81 / qpstep=4 / ip_ratio=1.40 / aq=3:0.50
Language                                 : Japanese
Default                                  : Yes
Forced                                   : No
Color range                              : Limited
Matrix coefficients                      : BT.470 System B/G

Audio
ID                                       : 2
Format                                   : AC-3
Format/Info                              : Audio Coding 3
Commercial name                          : Dolby Digital
Codec ID                                 : A_AC3
Duration                                 : 24 min 10 s
Bit rate mode                            : Constant
Bit rate                                 : 384 kb/s
Channel(s)                               : 2 channels
Channel layout                           : L R
Sampling rate                            : 48.0 kHz
Frame rate                               : 31.250 FPS (1536 SPF)
Compression mode                         : Lossy
Delay relative to video                  : 20 ms
Stream size                              : 66.4 MiB (7%)
Language                                 : Japanese
Service kind                             : Complete Main
Default                                  : Yes
Forced                                   : No

Text
ID                                       : 3
Format                                   : ASS
Codec ID                                 : S_TEXT/ASS
Codec ID/Info                            : Advanced Sub Station Alpha
Compression mode                         : Lossless
Language                                 : English
Default                                  : Yes
Forced                                   : No

Menu
00:00:00.000                             : Introduction
00:00:26.026                             : Opening Theme
00:01:59.118                             : Part A
00:02:37.115                             : Episode Title
00:02:44.622                             : Part B
00:11:38.656                             : Eyecatch
00:11:42.702                             : Part C
00:22:18.295                             : Next Episode Preview
00:22:38.315                             : Ending Theme
beta
Anime DDL+NZB mirror
Current Time: 13/07/2024 13:58



About/FAQs

Discord