File Size1.165 GB (1,250,981,190 bytes)
DownloadClickNUpload | GoFile | MdiaLoad
DownloadGG: Part1, Part2
KrakenFiles: Part1, Part2
MultiUp: Part1
  • BdUpload
  • DownAce
  • Fichier
  • FileCloud
  • Filerio
  • FilesCdn
  • IndiShare
  • Kbagi
  • Turbobit
  • UpToBox
  • Uppit
, Part2
  • BdUpload
  • DownAce
  • Fichier
  • FileCloud
  • Filerio
  • FilesCdn
  • IndiShare
  • Kbagi
  • Turbobit
  • UpToBox
  • Uppit
, Part3
  • BdUpload
  • DownAce
  • Fichier
  • FileCloud
  • Filerio
  • FilesCdn
  • IndiShare
  • Kbagi
  • Turbobit
  • UpToBox
  • Uppit
HashesCRC32: 250CE6D7, MD5: 409FB0EBF5E724CC4B2A7E57ACB24208, SHA1: 2136950C93AF94DA90F42465E738C6ECD9ECF8B7, SHA256: D9AA4C3D2E20751C316784DE89BAF8DC0CAB7C2FAD7D3C4058223AF882BE18DA, ED2K: 76A151F3684D7164663AD2B6542374A6
Screenshots
screenshotscreenshotscreenshotscreenshotscreenshot
SubtitlesAll Attachments | eng [ASS]
Additional Info
General
Unique ID                                : 266846986323122584557523619890852906504 (0xC8C0DC32FB51F0090BD025C93B31C608)
Complete name                            : [wazato] Hokuto no Ken (1984) - 017 [REMASTERED] [DVD] [250CE6D7].mkv
Format                                   : Matroska
Format version                           : Version 4
File size                                : 1.17 GiB
Duration                                 : 24 min 8 s
Overall bit rate                         : 6 909 kb/s
Encoded date                             : UTC 2023-07-19 20:29:44
Writing application                      : mkvmerge v78.0 ('Running') 64-bit
Writing library                          : libebml v1.4.4 + libmatroska v1.7.1
Attachments                              : CTMercuriusStd-Medium.otf / CTMercuriusStd-MediumItalic.otf / Marker Notes Italic.otf / Marker Notes.otf / CAC Moose.ttf / KGRedHands.ttf / Lightning Bolt.ttf / SpeedBeast FREE.ttf

Video
ID                                       : 1
Format                                   : AVC
Format/Info                              : Advanced Video Codec
Format profile                           : High 10@L4
Format settings                          : CABAC / 16 Ref Frames
Format settings, CABAC                   : Yes
Format settings, Reference frames        : 16 frames
Codec ID                                 : V_MPEG4/ISO/AVC
Duration                                 : 24 min 8 s
Bit rate                                 : 6 579 kb/s
Width                                    : 716 pixels
Height                                   : 480 pixels
Display aspect ratio                     : 4:3
Original display aspect ratio            : 4:3
Frame rate mode                          : Constant
Frame rate                               : 23.976 (24000/1001) FPS
Standard                                 : NTSC
Color space                              : YUV
Chroma subsampling                       : 4:2:0
Bit depth                                : 10 bits
Scan type                                : Progressive
Bits/(Pixel*Frame)                       : 0.798
Stream size                              : 1.11 GiB (95%)
Writing library                          : x264 core 164 r3107 a8b68eb
Encoding settings                        : cabac=1 / ref=16 / deblock=1:-2:-2 / analyse=0x3:0x133 / me=tesa / subme=10 / psy=1 / psy_rd=1.00:0.00 / mixed_ref=1 / me_range=24 / chroma_me=1 / trellis=2 / 8x8dct=1 / cqm=0 / deadzone=21,11 / fast_pskip=0 / chroma_qp_offset=-2 / threads=12 / lookahead_threads=3 / sliced_threads=0 / nr=0 / decimate=0 / interlaced=0 / bluray_compat=0 / constrained_intra=0 / bframes=16 / b_pyramid=2 / b_adapt=2 / b_bias=0 / direct=3 / weightb=1 / open_gop=0 / weightp=2 / keyint=240 / keyint_min=23 / scenecut=40 / intra_refresh=0 / rc_lookahead=60 / rc=crf / mbtree=1 / crf=13.5 / qcomp=0.60 / qpmin=0 / qpmax=81 / qpstep=4 / ip_ratio=1.40 / aq=3:0.50
Language                                 : Japanese
Default                                  : Yes
Forced                                   : No
Color range                              : Limited
Matrix coefficients                      : BT.470 System B/G

Audio
ID                                       : 2
Format                                   : AC-3
Format/Info                              : Audio Coding 3
Commercial name                          : Dolby Digital
Codec ID                                 : A_AC3
Duration                                 : 24 min 8 s
Bit rate mode                            : Constant
Bit rate                                 : 192 kb/s
Channel(s)                               : 2 channels
Channel layout                           : L R
Sampling rate                            : 48.0 kHz
Frame rate                               : 31.250 FPS (1536 SPF)
Compression mode                         : Lossy
Stream size                              : 33.2 MiB (3%)
Language                                 : Japanese
Service kind                             : Complete Main
Default                                  : Yes
Forced                                   : No

Text
ID                                       : 3
Format                                   : ASS
Codec ID                                 : S_TEXT/ASS
Codec ID/Info                            : Advanced Sub Station Alpha
Compression mode                         : Lossless
Language                                 : English
Default                                  : Yes
Forced                                   : No

Menu
00:00:00.000                             : Introduction
00:00:26.026                             : Opening Theme
00:01:58.952                             : Part A
00:03:08.855                             : Episode Title
00:03:16.863                             : Part B
00:12:06.559                             : Eyecatch
00:12:10.479                             : Part C
00:22:18.003                             : Ending Theme
00:23:47.968                             : Next Episode Preview
beta
Anime DDL+NZB mirror
Current Time: 14/07/2024 17:09



About/FAQs

Discord