[Vivid-Asenshi] Violet Evergarden - 08 [9D88CC8E].mkv


File Size290.9 MB (305,050,365 bytes)
DownloadClickNUpload | DiskoKosmiko | Go4Up | Jheberg | MultiUp | OpenLoad | Sendspace | SolidFiles | Upfile.mobi
Encrypted DownloadDirect
Password:
HashesCRC32: 9D88CC8E, MD5: 9289CF47F657C5DE5A6A2D476ED00F0C, SHA1: 8B11973BD58C7DD2D7D58DBD6DA3FF04FCF22727, SHA256: 615C9194D5F62D2B7CA08F06DB8A443C82DF57E776F3DBE689AD905C37DCBB79, ED2K: 31A739F0951439D987B991CE2584FE5F
Screenshots
screenshotscreenshotscreenshotscreenshotscreenshot
SubtitlesAll Attachments | eng [ASS]
Additional Info
General
Unique ID                                : 163068424049982711790142703819951212441 (0x7AADD609BE9991CC68EB90541B408799)
Complete name                            : [Vivid-Asenshi] Violet Evergarden - 08 [9D88CC8E].mkv
Format                                   : Matroska
Format version                           : Version 4 / Version 2
File size                                : 291 MiB
Duration                                 : 23 min 39 s
Overall bit rate                         : 1 719 kb/s
Encoded date                             : UTC 2018-02-28 22:46:13
Writing application                      : mkvmerge v20.0.0 ('I Am The Sun') 64-bit
Writing library                          : libebml v1.3.5 + libmatroska v1.4.8
Attachments                              : FOT-KleePro-DB-Str.otf / IwaOMinPro-Bd-Fate.ttf / justs.ttf / Cabin-Bold.otf

Video
ID                                       : 1
Format                                   : AVC
Format/Info                              : Advanced Video Codec
Format profile                           : High 10@L5
Format settings, CABAC                   : Yes
Format settings, ReFrames                : 16 frames
Codec ID                                 : V_MPEG4/ISO/AVC
Duration                                 : 23 min 39 s
Bit rate                                 : 1 451 kb/s
Width                                    : 1 280 pixels
Height                                   : 720 pixels
Display aspect ratio                     : 16:9
Frame rate mode                          : Constant
Frame rate                               : 23.976 (24000/1001) FPS
Color space                              : YUV
Chroma subsampling                       : 4:2:0
Bit depth                                : 10 bits
Scan type                                : Progressive
Bits/(Pixel*Frame)                       : 0.066
Stream size                              : 246 MiB (84%)
Writing library                          : x264 core 155 r2867+74 66b5600 t_mod_Custom_2 [10-bit@all X86_64]
Encoding settings                        : cabac=1 / ref=16 / deblock=1:0:0 / analyse=0x3:0x133 / me=umh / subme=10 / psy=1 / fade_compensate=0.80 / psy_rd=0.85:0.00 / mixed_ref=1 / me_range=24 / chroma_me=1 / trellis=2 / 8x8dct=1 / cqm=0 / deadzone=21,11 / fast_pskip=1 / chroma_qp_offset=-2 / threads=12 / lookahead_threads=3 / sliced_threads=0 / nr=0 / decimate=1 / interlaced=0 / bluray_compat=0 / constrained_intra=0 / fgo=0 / bframes=16 / b_pyramid=2 / b_adapt=2 / b_bias=0 / direct=3 / weightb=1 / open_gop=0 / weightp=2 / keyint=250 / keyint_min=23 / scenecut=40 / intra_refresh=0 / rc_lookahead=60 / rc=crf / mbtree=1 / crf=16.3000 / qcomp=0.65 / qpmin=0:0:0 / qpmax=81:81:81 / qpstep=4 / ip_ratio=1.40 / aq=3:0.80 / aq-sensitivity=10.00 / aq-factor=1.00:1.00:1.00 / aq2=0 / aq3=0
Language                                 : English
Default                                  : Yes
Forced                                   : No
Color range                              : Limited
Matrix coefficients                      : BT.709

Audio
ID                                       : 2
Format                                   : AAC
Format/Info                              : Advanced Audio Codec
Format profile                           : LC
Codec ID                                 : A_AAC
Duration                                 : 23 min 39 s
Bit rate                                 : 252 kb/s
Channel(s)                               : 2 channels
Channel positions                        : Front: L R
Sampling rate                            : 48.0 kHz
Frame rate                               : 46.875 FPS (1024 spf)
Compression mode                         : Lossy
Stream size                              : 42.7 MiB (15%)
Language                                 : Japanese
Default                                  : Yes
Forced                                   : No

Text
ID                                       : 3
Format                                   : ASS
Codec ID                                 : S_TEXT/ASS
Codec ID/Info                            : Advanced Sub Station Alpha
Duration                                 : 23 min 35 s
Bit rate                                 : 7 968 b/s
Count of elements                        : 1904
Compression mode                         : Lossless
Stream size                              : 1.34 MiB (0%)
Language                                 : English
Default                                  : Yes
Forced                                   : No

Menu
00:00:00.000                             : :Intro
00:00:49.007                             : :OP
00:02:18.972                             : :Part A
00:11:30.940                             : :Part B
00:22:09.912                             : :ED
beta
Anime DDL+NZB mirror
Current Time: 17/09/2019 01:50



About/FAQs