[VipapkStudios] Tunshi Xingkong - 026 [1080p] [x265].mkv


File Size540.9 MB (567,146,559 bytes)
DownloadClickNUpload | DropAPK | Free
MultiUp: Part1
  • BdUpload
  • DownAce
  • Fichier
  • FileCloud
  • Filerio
  • FilesCdn
  • IndiShare
  • Kbagi
  • Turbobit
  • UpToBox
  • Uppit
, Part2
  • BdUpload
  • DownAce
  • Fichier
  • FileCloud
  • Filerio
  • FilesCdn
  • IndiShare
  • Kbagi
  • Turbobit
  • UpToBox
  • Uppit

SolidFiles: Part1, Part2
ZippyShare: Part1, Part2
HashesCRC32: 8992DD6D, MD5: D5A61AA5E20EC3DC13BE4BCEC32B4C25, SHA1: 99FDE83AA64F7BDD2F43036F6DD76FD04A56D826, SHA256: C170E5DDDA113FE86C6C70CC06689A1FABE7D4189C2F3FC832168C2F74596820, ED2K: 922B2AE1FBD1E5B2C858A79821055713
Screenshots
screenshotscreenshotscreenshotscreenshotscreenshot
SubtitlesAll Attachments | [01] [English] [AnimeXin] [VipapkStudios] - Open Sans [und, ASS], [02] [English] [AnimeXin] [VipapkStudios] - Roboto [und, ASS], [03] [English] [AnimeXin] [VipapkStudios] - Century Gothic [und, ASS], [04] [English] [AnimeXin] [VipapkStudios] - Angie [und, ASS], [05] [English] [AnimeXin] [VipapkStudios] - Bebas Neue [und, ASS], [06] [English] [AnimeXin] [VipapkStudios] - Hides Chinese (01) [und, ASS], [07] [English] [AnimeXin] [VipapkStudios] - Hides Chinese (02) [und, ASS], [08] [English] [AnimeXin] [VipapkStudios] - Hides Chinese (03) [und, ASS], [09] [English] [AnimeXin] [VipapkStudios] - Hides Chinese (04) [und, ASS], [10] [English] [AnimeXin] [VipapkStudios] - Hides Chinese (05) [und, ASS]
Additional Info
General
Unique ID                                : 328923646536848932984658478752028161860 (0xF77463D8E3F642A911C9033021A7F744)
Complete name                            : [VipapkStudios] Tunshi Xingkong - 026 [1080p] [x265].mkv
Format                                   : Matroska
Format version                           : Version 4
File size                                : 541 MiB
Duration                                 : 22 min 18 s
Overall bit rate                         : 3 391 kb/s
Movie name                               : [VipapkStudios] Tunshi Xingkong - 026 [1080p]
Encoded date                             : UTC 2021-05-17 07:40:13
Writing application                      : mkvmerge v56.1.0 ('My Friend') 64-bit
Writing library                          : libebml v1.4.2 + libmatroska v1.6.4
Attachments                              : Angie-Bold.ttf / Angie-Regular.otf / Bebas Neue - Regular.ttf / Century Gothic - Bold.ttf / Century Gothic - Regular.ttf / Open Sans - Bold.ttf / Open Sans - Regular.ttf / Roboto - Bold.ttf / Roboto - Regular.ttf

Video
ID                                       : 11
Format                                   : HEVC
Format/Info                              : High Efficiency Video Coding
Format profile                           : Main 10@L4.1@High
Codec ID                                 : V_MPEGH/ISO/HEVC
Duration                                 : 22 min 18 s
Bit rate                                 : 3 288 kb/s
Width                                    : 1 920 pixels
Height                                   : 1 080 pixels
Display aspect ratio                     : 16:9
Frame rate mode                          : Constant
Frame rate                               : 25.000 FPS
Color space                              : YUV
Chroma subsampling                       : 4:2:0
Bit depth                                : 10 bits
Bits/(Pixel*Frame)                       : 0.063
Stream size                              : 524 MiB (97%)
Title                                    : [VipapkStudios] [AnimeXin] Tunshi Xingkong - 026 [1080p] [HEVC] [10-bit] [x265]
Writing library                          : x265 3.2.1+1-b5c86a64bbbe:[Windows][GCC 9.2.0][64 bit] 10bit
Encoding settings                        : cpuid=1111039 / frame-threads=3 / numa-pools=12 / wpp / no-pmode / no-pme / no-psnr / no-ssim / log-level=2 / input-csp=1 / input-res=1920x1080 / interlace=0 / total-frames=0 / level-idc=41 / high-tier=1 / uhd-bd=0 / ref=5 / no-allow-non-conformance / no-repeat-headers / annexb / no-aud / no-hrd / info / hash=0 / no-temporal-layers / open-gop / min-keyint=25 / keyint=250 / gop-lookahead=0 / bframes=8 / b-adapt=2 / b-pyramid / bframe-bias=0 / rc-lookahead=20 / lookahead-slices=6 / scenecut=40 / radl=0 / no-splice / no-intra-refresh / ctu=64 / min-cu-size=8 / no-rect / no-amp / max-tu-size=32 / tu-inter-depth=1 / tu-intra-depth=1 / limit-tu=0 / rdoq-level=0 / dynamic-rd=0.00 / no-ssim-rd / signhide / no-tskip / nr-intra=0 / nr-inter=0 / no-constrained-intra / strong-intra-smoothing / max-merge=3 / limit-refs=1 / no-limit-modes / me=1 / subme=2 / merange=57 / temporal-mvp / no-hme / weightp / no-weightb / no-analyze-src-pics / deblock=-5:-5 / no-sao / no-sao-non-deblock / rd=3 / selective-sao=0 / early-skip / rskip / no-fast-intra / no-tskip-fast / no-cu-lossless / b-intra / no-splitrd-skip / rdpenalty=0 / psy-rd=2.00 / psy-rdoq=0.00 / no-rd-refine / no-lossless / cbqpoffs=0 / crqpoffs=0 / rc=crf / crf=25.5 / qcomp=0.70 / qpstep=4 / stats-write=0 / stats-read=0 / vbv-maxrate=50000 / vbv-bufsize=50000 / vbv-init=0.9 / crf-max=0.0 / crf-min=0.0 / ipratio=1.40 / pbratio=1.30 / aq-mode=3 / aq-strength=0.80 / cutree / zone-count=0 / no-strict-cbr / qg-size=32 / no-rc-grain / qpmax=69 / qpmin=0 / no-const-vbv / sar=1 / overscan=0 / videoformat=5 / range=0 / colorprim=1 / transfer=1 / colormatrix=1 / chromaloc=0 / display-window=0 / cll=0,0 / min-luma=0 / max-luma=1023 / log2-max-poc-lsb=8 / vui-timing-info / vui-hrd-info / slices=1 / no-opt-qp-pps / no-opt-ref-list-length-pps / no-multi-pass-opt-rps / scenecut-bias=0.05 / no-opt-cu-delta-qp / no-aq-motion / no-hdr / no-hdr-opt / no-dhdr10-opt / no-idr-recovery-sei / analysis-reuse-level=5 / scale-factor=0 / refine-intra=0 / refine-inter=0 / refine-mv=1 / refine-ctu-distortion=0 / no-limit-sao / ctu-info=0 / no-lowpass-dct / refine-analysis-type=0 / copy-pic=1 / max-ausize-factor=1.0 / no-dynamic-refine / no-single-sei / no-hevc-aq / no-svt / no-field / qp-adaptation-range=1.00
Default                                  : Yes
Forced                                   : No
Color range                              : Limited
Color primaries                          : BT.709
Transfer characteristics                 : BT.709
Matrix coefficients                      : BT.709

Audio
ID                                       : 12
Format                                   : AAC LC
Format/Info                              : Advanced Audio Codec Low Complexity
Codec ID                                 : A_AAC-2
Duration                                 : 22 min 18 s
Bit rate                                 : 93.4 kb/s
Channel(s)                               : 2 channels
Channel layout                           : L R
Sampling rate                            : 48.0 kHz
Frame rate                               : 46.875 FPS (1024 SPF)
Compression mode                         : Lossy
Delay relative to video                  : -42 ms
Stream size                              : 14.9 MiB (3%)
Title                                    : [VipapkStudios] [AnimeXin] [Chinese/Mandarin] Tunshi Xingkong - 026 [AAC] [2.0]
Default                                  : Yes
Forced                                   : No

Text #1
ID                                       : 1
Format                                   : ASS
Codec ID                                 : S_TEXT/ASS
Codec ID/Info                            : Advanced Sub Station Alpha
Duration                                 : 16 min 32 s
Bit rate                                 : 101 b/s
Count of elements                        : 199
Compression mode                         : Lossless
Stream size                              : 12.2 KiB (0%)
Title                                    : [01] [English] [AnimeXin] [VipapkStudios] - Open Sans
Default                                  : Yes
Forced                                   : No

Text #2
ID                                       : 2
Format                                   : ASS
Codec ID                                 : S_TEXT/ASS
Codec ID/Info                            : Advanced Sub Station Alpha
Duration                                 : 16 min 32 s
Bit rate                                 : 101 b/s
Count of elements                        : 199
Compression mode                         : Lossless
Stream size                              : 12.2 KiB (0%)
Title                                    : [02] [English] [AnimeXin] [VipapkStudios] - Roboto
Default                                  : No
Forced                                   : No

Text #3
ID                                       : 3
Format                                   : ASS
Codec ID                                 : S_TEXT/ASS
Codec ID/Info                            : Advanced Sub Station Alpha
Duration                                 : 16 min 32 s
Bit rate                                 : 101 b/s
Count of elements                        : 199
Compression mode                         : Lossless
Stream size                              : 12.2 KiB (0%)
Title                                    : [03] [English] [AnimeXin] [VipapkStudios] - Century Gothic
Default                                  : No
Forced                                   : No

Text #4
ID                                       : 4
Format                                   : ASS
Codec ID                                 : S_TEXT/ASS
Codec ID/Info                            : Advanced Sub Station Alpha
Duration                                 : 16 min 32 s
Bit rate                                 : 101 b/s
Count of elements                        : 199
Compression mode                         : Lossless
Stream size                              : 12.2 KiB (0%)
Title                                    : [04] [English] [AnimeXin] [VipapkStudios] - Angie
Default                                  : No
Forced                                   : No

Text #5
ID                                       : 5
Format                                   : ASS
Codec ID                                 : S_TEXT/ASS
Codec ID/Info                            : Advanced Sub Station Alpha
Duration                                 : 16 min 32 s
Bit rate                                 : 101 b/s
Count of elements                        : 199
Compression mode                         : Lossless
Stream size                              : 12.2 KiB (0%)
Title                                    : [05] [English] [AnimeXin] [VipapkStudios] - Bebas Neue
Default                                  : No
Forced                                   : No

Text #6
ID                                       : 6
Format                                   : ASS
Codec ID                                 : S_TEXT/ASS
Codec ID/Info                            : Advanced Sub Station Alpha
Duration                                 : 16 min 32 s
Bit rate                                 : 101 b/s
Count of elements                        : 199
Compression mode                         : Lossless
Stream size                              : 12.3 KiB (0%)
Title                                    : [06] [English] [AnimeXin] [VipapkStudios] - Hides Chinese (01)
Default                                  : No
Forced                                   : No

Text #7
ID                                       : 7
Format                                   : ASS
Codec ID                                 : S_TEXT/ASS
Codec ID/Info                            : Advanced Sub Station Alpha
Duration                                 : 16 min 32 s
Bit rate                                 : 101 b/s
Count of elements                        : 199
Compression mode                         : Lossless
Stream size                              : 12.3 KiB (0%)
Title                                    : [07] [English] [AnimeXin] [VipapkStudios] - Hides Chinese (02)
Default                                  : No
Forced                                   : No

Text #8
ID                                       : 8
Format                                   : ASS
Codec ID                                 : S_TEXT/ASS
Codec ID/Info                            : Advanced Sub Station Alpha
Duration                                 : 16 min 32 s
Bit rate                                 : 101 b/s
Count of elements                        : 199
Compression mode                         : Lossless
Stream size                              : 12.3 KiB (0%)
Title                                    : [08] [English] [AnimeXin] [VipapkStudios] - Hides Chinese (03)
Default                                  : No
Forced                                   : No

Text #9
ID                                       : 9
Format                                   : ASS
Codec ID                                 : S_TEXT/ASS
Codec ID/Info                            : Advanced Sub Station Alpha
Duration                                 : 16 min 32 s
Bit rate                                 : 101 b/s
Count of elements                        : 199
Compression mode                         : Lossless
Stream size                              : 12.3 KiB (0%)
Title                                    : [09] [English] [AnimeXin] [VipapkStudios] - Hides Chinese (04)
Default                                  : No
Forced                                   : No

Text #10
ID                                       : 10
Format                                   : ASS
Codec ID                                 : S_TEXT/ASS
Codec ID/Info                            : Advanced Sub Station Alpha
Duration                                 : 16 min 32 s
Bit rate                                 : 101 b/s
Count of elements                        : 199
Compression mode                         : Lossless
Stream size                              : 12.3 KiB (0%)
Title                                    : [10] [English] [AnimeXin] [VipapkStudios] - Hides Chinese (05)
Default                                  : No
Forced                                   : No
beta
Anime DDL+NZB mirror
Current Time: 31/07/2021 03:29



About/FAQs