File Size499.6 MB (523,873,328 bytes)
DownloadAnonFiles | ClickNUpload | DropAPK | Free | MultiUp
  • BdUpload
  • DownAce
  • Fichier
  • FileCloud
  • Filerio
  • FilesCdn
  • IndiShare
  • Kbagi
  • Turbobit
  • UpToBox
  • Uppit
| SolidFiles | ZippyShare
HashesCRC32: DE9A7509, MD5: C526CB849FE155BD83ABBE75A1B07B16, SHA1: 94C81D20E1B10914564A5B2C2EBCC2C93D2F96D9, SHA256: A8B609916FE75DE7E69152B09EBC9C85AB373929072F3A0D5300C7A3C080FBF7, ED2K: 888BD8A9FCA23C30EA30C9D7157383C4
Screenshots
screenshotscreenshotscreenshotscreenshotscreenshot
SubtitlesAll Attachments | [01] [English] [Official Subs] [VipapkStudios] - Open Sans [und, ASS], [02] [English] [Official Subs] [VipapkStudios] - Century Gothic [und, ASS], [03] [English] [Official Subs] [VipapkStudios] - Spider-Man [und, ASS], [04] [English] [Official Subs] [VipapkStudios] - Comic Sans [und, ASS], [05] [English] [Official Subs] [VipapkStudios] - Angie [und, ASS], [06] [English] [Official Subs] [VipapkStudios] - Hides Chinese (01) [und, ASS], [07] [English] [Official Subs] [VipapkStudios] - Hides Chinese (02) [und, ASS], [08] [English] [Official Subs] [VipapkStudios] - Hides Chinese (03) [und, ASS]
Additional Info
General
Unique ID                                : 185454106773188828600009702325741793139 (0x8B852968BCA0EF13E08658F86335AF73)
Complete name                            : [VipapkStudios] Douluo Dalu S3 - 140v1 [1080p] [x265].mkv
Format                                   : Matroska
Format version                           : Version 4
File size                                : 500 MiB
Duration                                 : 21 min 33 s
Overall bit rate                         : 3 239 kb/s
Movie name                               : [VipapkStudios] Douluo Dalu S3 - 140 [1080p]
Encoded date                             : UTC 2021-01-23 12:26:48
Writing application                      : mkvmerge v52.0.0 ('Secret For The Mad') 64-bit
Writing library                          : libebml v1.4.1 + libmatroska v1.6.2
Attachments                              : Angie-Bold.ttf / Angie-Regular.otf / Century Gothic-Bold.ttf / Century Gothic-Regular.ttf / Comic Sans MS-Bold.ttf / Comic Sans MS-Regular.ttf / OpenSans-Bold.ttf / OpenSans-Regular.ttf / Spider-Man.otf

Video
ID                                       : 9
Format                                   : HEVC
Format/Info                              : High Efficiency Video Coding
Format profile                           : Main 10@L5@Main
Codec ID                                 : V_MPEGH/ISO/HEVC
Duration                                 : 21 min 33 s
Bit rate                                 : 3 070 kb/s
Width                                    : 1 920 pixels
Height                                   : 1 080 pixels
Display aspect ratio                     : 16:9
Frame rate mode                          : Constant
Frame rate                               : 25.000 FPS
Color space                              : YUV
Chroma subsampling                       : 4:2:0
Bit depth                                : 10 bits
Bits/(Pixel*Frame)                       : 0.059
Stream size                              : 474 MiB (95%)
Title                                    : [VipapkStudios] Douluo Dalu S3 - 140 [1080p] [HEVC] [10 bits] [x265]
Writing library                          : x265 3.2.1+1-b5c86a64bbbe:[Windows][GCC 9.2.0][64 bit] 10bit
Encoding settings                        : cpuid=1111039 / frame-threads=3 / numa-pools=12 / wpp / no-pmode / no-pme / no-psnr / no-ssim / log-level=2 / input-csp=1 / input-res=1920x1080 / interlace=0 / total-frames=0 / level-idc=0 / high-tier=1 / uhd-bd=0 / ref=6 / no-allow-non-conformance / no-repeat-headers / annexb / no-aud / no-hrd / info / hash=0 / no-temporal-layers / open-gop / min-keyint=25 / keyint=250 / gop-lookahead=0 / bframes=8 / b-adapt=2 / b-pyramid / bframe-bias=0 / rc-lookahead=20 / lookahead-slices=6 / scenecut=40 / radl=0 / no-splice / no-intra-refresh / ctu=64 / min-cu-size=8 / no-rect / no-amp / max-tu-size=32 / tu-inter-depth=1 / tu-intra-depth=1 / limit-tu=0 / rdoq-level=0 / dynamic-rd=0.00 / no-ssim-rd / signhide / no-tskip / nr-intra=0 / nr-inter=0 / no-constrained-intra / no-strong-intra-smoothing / max-merge=3 / limit-refs=1 / no-limit-modes / me=1 / subme=2 / merange=57 / temporal-mvp / no-hme / weightp / no-weightb / no-analyze-src-pics / deblock=-1:-1 / no-sao / no-sao-non-deblock / rd=3 / selective-sao=0 / early-skip / rskip / no-fast-intra / no-tskip-fast / no-cu-lossless / b-intra / no-splitrd-skip / rdpenalty=0 / psy-rd=1.20 / psy-rdoq=0.00 / no-rd-refine / no-lossless / cbqpoffs=0 / crqpoffs=0 / rc=crf / crf=24.5 / qcomp=0.70 / qpstep=4 / stats-write=0 / stats-read=0 / ipratio=1.40 / pbratio=1.30 / aq-mode=3 / aq-strength=0.40 / cutree / zone-count=0 / no-strict-cbr / qg-size=32 / no-rc-grain / qpmax=69 / qpmin=0 / no-const-vbv / sar=1 / overscan=0 / videoformat=5 / range=0 / colorprim=1 / transfer=1 / colormatrix=1 / chromaloc=0 / display-window=0 / cll=0,0 / min-luma=0 / max-luma=1023 / log2-max-poc-lsb=8 / vui-timing-info / vui-hrd-info / slices=1 / no-opt-qp-pps / no-opt-ref-list-length-pps / no-multi-pass-opt-rps / scenecut-bias=0.05 / no-opt-cu-delta-qp / no-aq-motion / no-hdr / no-hdr-opt / no-dhdr10-opt / no-idr-recovery-sei / analysis-reuse-level=5 / scale-factor=0 / refine-intra=0 / refine-inter=0 / refine-mv=1 / refine-ctu-distortion=0 / no-limit-sao / ctu-info=0 / no-lowpass-dct / refine-analysis-type=0 / copy-pic=1 / max-ausize-factor=1.0 / no-dynamic-refine / no-single-sei / no-hevc-aq / no-svt / no-field / qp-adaptation-range=1.00
Default                                  : Yes
Forced                                   : No
Color range                              : Limited
Color primaries                          : BT.709
Transfer characteristics                 : BT.709
Matrix coefficients                      : BT.709

Audio
ID                                       : 10
Format                                   : AAC LC
Format/Info                              : Advanced Audio Codec Low Complexity
Codec ID                                 : A_AAC-2
Duration                                 : 21 min 33 s
Bit rate                                 : 160 kb/s
Channel(s)                               : 2 channels
Channel layout                           : L R
Sampling rate                            : 44.1 kHz
Frame rate                               : 43.066 FPS (1024 SPF)
Compression mode                         : Lossy
Delay relative to video                  : -67 ms
Stream size                              : 24.7 MiB (5%)
Title                                    : [VipapkStudios] Douluo Dalu S3 - 140 [AAC] [2.0]
Default                                  : Yes
Forced                                   : No

Text #1
ID                                       : 1
Format                                   : ASS
Codec ID                                 : S_TEXT/ASS
Codec ID/Info                            : Advanced Sub Station Alpha
Duration                                 : 20 min 20 s
Bit rate                                 : 127 b/s
Count of elements                        : 314
Compression mode                         : Lossless
Stream size                              : 19.0 KiB (0%)
Title                                    : [01] [English] [Official Subs] [VipapkStudios] - Open Sans
Default                                  : Yes
Forced                                   : No

Text #2
ID                                       : 2
Format                                   : ASS
Codec ID                                 : S_TEXT/ASS
Codec ID/Info                            : Advanced Sub Station Alpha
Duration                                 : 20 min 20 s
Bit rate                                 : 127 b/s
Count of elements                        : 314
Compression mode                         : Lossless
Stream size                              : 19.0 KiB (0%)
Title                                    : [02] [English] [Official Subs] [VipapkStudios] - Century Gothic
Default                                  : No
Forced                                   : No

Text #3
ID                                       : 3
Format                                   : ASS
Codec ID                                 : S_TEXT/ASS
Codec ID/Info                            : Advanced Sub Station Alpha
Duration                                 : 20 min 20 s
Bit rate                                 : 127 b/s
Count of elements                        : 314
Compression mode                         : Lossless
Stream size                              : 19.0 KiB (0%)
Title                                    : [03] [English] [Official Subs] [VipapkStudios] - Spider-Man
Default                                  : No
Forced                                   : No

Text #4
ID                                       : 4
Format                                   : ASS
Codec ID                                 : S_TEXT/ASS
Codec ID/Info                            : Advanced Sub Station Alpha
Duration                                 : 20 min 20 s
Bit rate                                 : 127 b/s
Count of elements                        : 314
Compression mode                         : Lossless
Stream size                              : 19.0 KiB (0%)
Title                                    : [04] [English] [Official Subs] [VipapkStudios] - Comic Sans
Default                                  : No
Forced                                   : No

Text #5
ID                                       : 5
Format                                   : ASS
Codec ID                                 : S_TEXT/ASS
Codec ID/Info                            : Advanced Sub Station Alpha
Duration                                 : 20 min 20 s
Bit rate                                 : 127 b/s
Count of elements                        : 314
Compression mode                         : Lossless
Stream size                              : 19.0 KiB (0%)
Title                                    : [05] [English] [Official Subs] [VipapkStudios] - Angie
Default                                  : No
Forced                                   : No

Text #6
ID                                       : 6
Format                                   : ASS
Codec ID                                 : S_TEXT/ASS
Codec ID/Info                            : Advanced Sub Station Alpha
Duration                                 : 20 min 20 s
Bit rate                                 : 128 b/s
Count of elements                        : 314
Compression mode                         : Lossless
Stream size                              : 19.1 KiB (0%)
Title                                    : [06] [English] [Official Subs] [VipapkStudios] - Hides Chinese (01)
Default                                  : No
Forced                                   : No

Text #7
ID                                       : 7
Format                                   : ASS
Codec ID                                 : S_TEXT/ASS
Codec ID/Info                            : Advanced Sub Station Alpha
Duration                                 : 20 min 20 s
Bit rate                                 : 128 b/s
Count of elements                        : 314
Compression mode                         : Lossless
Stream size                              : 19.1 KiB (0%)
Title                                    : [07] [English] [Official Subs] [VipapkStudios] - Hides Chinese (02)
Default                                  : No
Forced                                   : No

Text #8
ID                                       : 8
Format                                   : ASS
Codec ID                                 : S_TEXT/ASS
Codec ID/Info                            : Advanced Sub Station Alpha
Duration                                 : 20 min 20 s
Bit rate                                 : 128 b/s
Count of elements                        : 314
Compression mode                         : Lossless
Stream size                              : 19.1 KiB (0%)
Title                                    : [08] [English] [Official Subs] [VipapkStudios] - Hides Chinese (03)
Default                                  : No
Forced                                   : No
beta
Anime DDL+NZB mirror
Current Time: 20/04/2021 13:24



About/FAQs