File Size3.541 GB (3,802,521,656 bytes)
DownloadClickNUpload: Part1, Part2, Part3, Part4
Jheberg: Part1, Part2, Part3, Part4
MultiUp: Part1, Part2, Part3, Part4
OpenLoad: Part1, Part2, Part3, Part4
Sendspace: Part1, Part2, Part3, Part4, Part5, Part6, Part7, Part8, Part9, Part10, Part11, Part12, Part13
SolidFiles: Part1, Part2, Part3, Part4, Part5, Part6, Part7, Part8
ZippyShare: Part1, Part2, Part3, Part4, Part5, Part6, Part7, Part8
HashesCRC32: E82D6568, MD5: 1104E79B89441355BE1D695813404CAD, SHA1: 5DC6DB7A6F7D4592868CD32B97482181EF4C7BF1, SHA256: FDB6E8E99FCFCCF56C4A733B45EF8592FBA6079AFBA5D737DAA51F92101E9915, ED2K: 342047282AAE3CBAF3B4AD49AC843617
Screenshots
screenshotscreenshotscreenshotscreenshotscreenshot
SubtitlesAll Attachments | Violet Fans [chi, ASS], 日本語字幕 Blu-ray sup [jpn, PGS], Netflix English Subtitle [eng, SRT]
Additional Info
General
Unique ID                                : 180451910007723369770230538274740560562 (0x87C1C6113DA87123B201413FCF72E2B2)
Complete name                            : Violet Evergarden - Vol.1 Movie ver. [BDRip HEVC-yuv420p10 1920x1080p FLAC][Sub(chi,jpn,eng)].mkv
Format                                   : Matroska
Format version                           : Version 4 / Version 2
File size                                : 3.54 GiB
Duration                                 : 1 h 14 min
Overall bit rate mode                    : Variable
Overall bit rate                         : 6 788 kb/s
Movie name                               : ヴァイオレット・エヴァーガーデン 第1話~第3話 劇場上映版
Encoded date                             : UTC 2018-04-13 12:06:26
Writing application                      : mkvmerge v18.0.0 ('Apricity') 64-bit
Writing library                          : libebml v1.3.5 + libmatroska v1.4.8
Attachments                              : FOT-MatisseProN-B.otf / 華康中黑體_0.ttc

Video
ID                                       : 1
Format                                   : HEVC
Format/Info                              : High Efficiency Video Coding
Format profile                           : Main 10@L4@Main
Codec ID                                 : V_MPEGH/ISO/HEVC
Duration                                 : 1 h 14 min
Bit rate                                 : 4 558 kb/s
Width                                    : 1 920 pixels
Height                                   : 1 080 pixels
Display aspect ratio                     : 16:9
Frame rate mode                          : Constant
Frame rate                               : 23.976 (24000/1001) FPS
Color space                              : YUV
Chroma subsampling                       : 4:2:0
Bit depth                                : 10 bits
Bits/(Pixel*Frame)                       : 0.092
Stream size                              : 2.38 GiB (67%)
Title                                    : BDrip by Violet Fans
Default                                  : Yes
Forced                                   : No
Color range                              : Limited
Matrix coefficients                      : BT.709

Audio #1
ID                                       : 2
Format                                   : FLAC
Format/Info                              : Free Lossless Audio Codec
Codec ID                                 : A_FLAC
Duration                                 : 1 h 14 min
Bit rate mode                            : Variable
Bit rate                                 : 1 352 kb/s
Channel(s)                               : 2 channels
Channel positions                        : Front: L R
Sampling rate                            : 48.0 kHz
Frame rate                               : 11.719 FPS (4096 spf)
Bit depth                                : 24 bits
Stream size                              : 722 MiB (20%)
Title                                    : 2.0ch
Writing library                          : libFLAC 1.3.2 (UTC 2017-01-01)
Language                                 : Japanese
Default                                  : Yes
Forced                                   : No

Audio #2
ID                                       : 3
Format                                   : AAC
Format/Info                              : Advanced Audio Codec
Format profile                           : LC
Codec ID                                 : A_AAC
Duration                                 : 1 h 14 min
Bit rate                                 : 730 kb/s
Channel(s)                               : 6 channels
Channel positions                        : Front: L C R, Side: L R, LFE
Sampling rate                            : 48.0 kHz
Frame rate                               : 46.875 FPS (1024 spf)
Compression mode                         : Lossy
Delay relative to video                  : 9 ms
Stream size                              : 390 MiB (11%)
Title                                    : 5.1ch
Language                                 : Japanese
Default                                  : No
Forced                                   : No

Text #1
ID                                       : 4
Format                                   : ASS
Codec ID                                 : S_TEXT/ASS
Codec ID/Info                            : Advanced Sub Station Alpha
Duration                                 : 1 h 14 min
Bit rate                                 : 112 b/s
Count of elements                        : 1136
Compression mode                         : Lossless
Stream size                              : 61.4 KiB (0%)
Title                                    : Violet Fans
Language                                 : Chinese
Default                                  : No
Forced                                   : No

Text #2
ID                                       : 5
Format                                   : PGS
Muxing mode                              : zlib
Codec ID                                 : S_HDMV/PGS
Codec ID/Info                            : Picture based subtitle format used on BDs/HD-DVDs
Duration                                 : 1 h 14 min
Bit rate                                 : 242 kb/s
Count of elements                        : 6737
Stream size                              : 129 MiB (4%)
Title                                    : 日本語字幕 Blu-ray sup
Language                                 : Japanese
Default                                  : Yes
Forced                                   : No

Text #3
ID                                       : 6
Format                                   : UTF-8
Codec ID                                 : S_TEXT/UTF8
Codec ID/Info                            : UTF-8 Plain Text
Duration                                 : 1 h 8 min
Bit rate                                 : 60 b/s
Count of elements                        : 989
Stream size                              : 30.1 KiB (0%)
Title                                    : Netflix English Subtitle
Language                                 : English
Default                                  : No
Forced                                   : No

Other Files in this Torrent
Violet Evergarden - Vol.1 Movie ver. [BDRip HEVC-yuv420p10 1920x1080p FLAC][Sub(chi,jpn,eng)].mkv
beta
Anime DDL+NZB mirror
Current Time: 25/05/2020 01:57



About/FAQs