File Size134.8 MB (141,321,246 bytes)
DownloadClickNUpload | DiskoKosmiko | Go4Up | Jheberg | MultiUp | OpenLoad | Sendspace | SolidFiles | ZippyShare
Encrypted DownloadDirect
Password:
HashesCRC32: EBB2BB7B, MD5: D66DCC80DBF39C357DB9C8A5B60413E4, SHA1: E999ACD46269BAFB1D561E7B505A8B7B356CD6A9, SHA256: BC3D064C120A1C9B5A0873ACCDA5E5178AE30A8F372749E9AC02C384678F94E3, ED2K: C86F05C753603E92580BEC692AF51888
Screenshots
screenshotscreenshotscreenshotscreenshotscreenshot
SubtitlesAll Attachments | English [eng, ASS], French [fre, ASS], Spanish [spa, ASS], German [ger, ASS], Italian [ita, ASS]
Additional Info
General
Unique ID                                : 237674710341650583533021598064417023623 (0xB2CE7BF25F41F382B1A2CB4A10FDA687)
Complete name                            : Violet Evergarden - 13 (1280x720 HEVC2 EAC3).mkv
Format                                   : Matroska
Format version                           : Version 4 / Version 2
File size                                : 135 MiB
Duration                                 : 24 min 13 s
Overall bit rate                         : 778 kb/s
Encoded date                             : UTC 2018-04-06 16:14:24 / UTC 2018-03-16 22:36:08
Writing application                      : mkvmerge v21.0.0 ('Tardigrades Will Inherit The Earth') 64-bit
Writing library                          : libebml v1.3.5 + libmatroska v1.4.8 / Lavf58.0.0
Attachments                              : OpenSans-Semibold.ttf

Video
ID                                       : 1
Format                                   : HEVC
Format/Info                              : High Efficiency Video Coding
Format profile                           : @L3.1@Main
Codec ID                                 : V_MPEGH/ISO/HEVC
Duration                                 : 24 min 13 s
Bit rate                                 : 634 kb/s
Width                                    : 1 280 pixels
Height                                   : 720 pixels
Display aspect ratio                     : 16:9
Frame rate mode                          : Constant
Frame rate                               : 23.976 (24000/1001) FPS
Original frame rate                      : 23.976 (23976/1000) FPS
Color space                              : YUV
Chroma subsampling                       : 4:2:0
Bit depth                                : 12 bits
Bits/(Pixel*Frame)                       : 0.029
Stream size                              : 110 MiB (82%)
Writing library                          : x265 2.7+17-2e370d98c806:[Windows][MSVC 1914][64 bit] 12bit
Encoding settings                        : cpuid=1105919 / frame-threads=2 / numa-pools=4 / wpp / no-pmode / no-pme / no-psnr / no-ssim / log-level=2 / input-csp=1 / input-res=1280x720 / interlace=0 / total-frames=34855 / level-idc=0 / high-tier=1 / uhd-bd=0 / ref=3 / no-allow-non-conformance / no-repeat-headers / annexb / no-aud / no-hrd / info / hash=0 / no-temporal-layers / no-open-gop / min-keyint=23 / keyint=250 / gop-lookahead=0 / bframes=4 / b-adapt=2 / b-pyramid / bframe-bias=0 / rc-lookahead=20 / lookahead-slices=4 / scenecut=40 / radl=0 / no-intra-refresh / ctu=64 / min-cu-size=8 / no-rect / no-amp / max-tu-size=32 / tu-inter-depth=1 / tu-intra-depth=1 / limit-tu=0 / rdoq-level=0 / dynamic-rd=0.00 / no-ssim-rd / signhide / no-tskip / nr-intra=0 / nr-inter=0 / no-constrained-intra / strong-intra-smoothing / max-merge=2 / limit-refs=3 / no-limit-modes / me=1 / subme=2 / merange=57 / temporal-mvp / weightp / no-weightb / no-analyze-src-pics / deblock=0:0 / sao / no-sao-non-deblock / rd=3 / no-early-skip / rskip / no-fast-intra / no-tskip-fast / no-cu-lossless / no-b-intra / no-splitrd-skip / rdpenalty=0 / psy-rd=2.00 / psy-rdoq=0.00 / no-rd-refine / no-lossless / cbqpoffs=0 / crqpoffs=0 / rc=crf / crf=20.0 / qcomp=0.60 / qpstep=4 / stats-write=0 / stats-read=0 / ipratio=1.40 / pbratio=1.30 / aq-mode=0 / aq-strength=1.00 / no-cutree / zone-count=0 / no-strict-cbr / qg-size=64 / rc-grain / qpmax=69 / qpmin=0 / const-vbv / sar=0 / overscan=0 / videoformat=5 / range=0 / colorprim=2 / transfer=2 / colormatrix=2 / chromaloc=0 / display-window=0 / max-cll=0,0 / min-luma=0 / max-luma=4095 / log2-max-poc-lsb=8 / vui-timing-info / vui-hrd-info / slices=1 / no-opt-qp-pps / no-opt-ref-list-length-pps / no-multi-pass-opt-rps / scenecut-bias=0.05 / no-opt-cu-delta-qp / no-aq-motion / no-hdr / no-hdr-opt / no-dhdr10-opt / no-idr-recovery-sei / analysis-reuse-level=5 / scale-factor=0 / refine-intra=0 / refine-inter=0 / refine-mv=0 / no-limit-sao / ctu-info=0 / no-lowpass-dct / refine-mv-type=0 / copy-pic=1 / max-ausize-factor=1.0 / no-dynamic-refine
Default                                  : Yes
Forced                                   : No
Statistics Tags Issue                    : mkvmerge v21.0.0 ('Tardigrades Will Inherit The Earth') 64-bit 2018-04-06 16:14:24 / mkvmerge v21.0.0 ('Tardigrades Will Inherit The Earth') 64-bit 2018-04-06 16:14:24 / UTC 2018-03-16 22:36:08
FromStats_BitRate                        : 646117
FromStats_Duration                       : 00:24:13.661000000
FromStats_FrameCount                     : 34853
FromStats_StreamSize                     : 117404526

Audio
ID                                       : 2
Format                                   : E-AC-3
Format/Info                              : Enhanced Audio Coding 3
Format settings, Endianness              : Big
Codec ID                                 : A_EAC3
Duration                                 : 24 min 13 s
Bit rate mode                            : Constant
Bit rate                                 : 128 kb/s
Channel(s)                               : 2 channels
Channel positions                        : Front: L R
Sampling rate                            : 48.0 kHz
Frame rate                               : 187.500 FPS (256 spf)
Compression mode                         : Lossy
Stream size                              : 22.2 MiB (16%)
Default                                  : Yes
Forced                                   : No
Encoded date                             : UTC 2018-03-16 22:36:08
HANDLER_NAME                             : Audio Media Handler
Statistics Tags Issue                    : mkvmerge v21.0.0 ('Tardigrades Will Inherit The Earth') 64-bit 2018-04-06 16:14:24 / mkvmerge v21.0.0 ('Tardigrades Will Inherit The Earth') 64-bit 2018-04-06 16:14:24 / UTC 2018-03-16 22:36:08
FromStats_BitRate                        : 128000
FromStats_Duration                       : 00:24:13.856000000
FromStats_FrameCount                     : 45433
FromStats_StreamSize                     : 23261696

Text #1
ID                                       : 3
Format                                   : ASS
Codec ID                                 : S_TEXT/ASS
Codec ID/Info                            : Advanced Sub Station Alpha
Compression mode                         : Lossless
Title                                    : English
Language                                 : English
Default                                  : Yes
Forced                                   : Yes
Statistics Tags Issue                    : mkvmerge v21.0.0 ('Tardigrades Will Inherit The Earth') 64-bit 2018-04-06 16:14:24 / mkvmerge v21.0.0 ('Tardigrades Will Inherit The Earth') 64-bit 2018-04-06 16:14:24 / UTC 2018-03-16 22:36:08
FromStats_BitRate                        : 74
FromStats_Duration                       : 00:23:26.980000000
FromStats_FrameCount                     : 250
FromStats_StreamSize                     : 13020

Text #2
ID                                       : 4
Format                                   : ASS
Codec ID                                 : S_TEXT/ASS
Codec ID/Info                            : Advanced Sub Station Alpha
Compression mode                         : Lossless
Title                                    : French
Language                                 : French
Default                                  : No
Forced                                   : No
Statistics Tags Issue                    : mkvmerge v21.0.0 ('Tardigrades Will Inherit The Earth') 64-bit 2018-04-06 16:14:24 / mkvmerge v21.0.0 ('Tardigrades Will Inherit The Earth') 64-bit 2018-04-06 16:14:24 / UTC 2018-03-16 22:36:08
FromStats_BitRate                        : 76
FromStats_Duration                       : 00:23:46.720000000
FromStats_FrameCount                     : 251
FromStats_StreamSize                     : 13656

Text #3
ID                                       : 5
Format                                   : ASS
Codec ID                                 : S_TEXT/ASS
Codec ID/Info                            : Advanced Sub Station Alpha
Compression mode                         : Lossless
Title                                    : Spanish
Language                                 : Spanish
Default                                  : No
Forced                                   : No
Statistics Tags Issue                    : mkvmerge v21.0.0 ('Tardigrades Will Inherit The Earth') 64-bit 2018-04-06 16:14:24 / mkvmerge v21.0.0 ('Tardigrades Will Inherit The Earth') 64-bit 2018-04-06 16:14:24 / UTC 2018-03-16 22:36:08
FromStats_BitRate                        : 75
FromStats_Duration                       : 00:23:45.720000000
FromStats_FrameCount                     : 250
FromStats_StreamSize                     : 13478

Text #4
ID                                       : 6
Format                                   : ASS
Codec ID                                 : S_TEXT/ASS
Codec ID/Info                            : Advanced Sub Station Alpha
Compression mode                         : Lossless
Title                                    : German
Language                                 : German
Default                                  : No
Forced                                   : No
Statistics Tags Issue                    : mkvmerge v21.0.0 ('Tardigrades Will Inherit The Earth') 64-bit 2018-04-06 16:14:24 / mkvmerge v21.0.0 ('Tardigrades Will Inherit The Earth') 64-bit 2018-04-06 16:14:24 / UTC 2018-03-16 22:36:08
FromStats_BitRate                        : 73
FromStats_Duration                       : 00:23:50.930000000
FromStats_FrameCount                     : 249
FromStats_StreamSize                     : 13188

Text #5
ID                                       : 7
Format                                   : ASS
Codec ID                                 : S_TEXT/ASS
Codec ID/Info                            : Advanced Sub Station Alpha
Compression mode                         : Lossless
Title                                    : Italian
Language                                 : Italian
Default                                  : No
Forced                                   : No
Statistics Tags Issue                    : mkvmerge v21.0.0 ('Tardigrades Will Inherit The Earth') 64-bit 2018-04-06 16:14:24 / mkvmerge v21.0.0 ('Tardigrades Will Inherit The Earth') 64-bit 2018-04-06 16:14:24 / UTC 2018-03-16 22:36:08
FromStats_BitRate                        : 74
FromStats_Duration                       : 00:23:50.760000000
FromStats_FrameCount                     : 250
FromStats_StreamSize                     : 13254

Other Files in this Torrent
Violet Evergarden - 13 (1280x720 HEVC2 EAC3).mkv
beta
Anime DDL+NZB mirror
Current Time: 04/04/2020 21:06



About/FAQs