[ViM] Val x Love - 01 (1920x1080 10bit AAC) [7BA3C514].mkv


File Size701.7 MB (735,765,258 bytes)
DownloadClickNUpload | Jheberg | OpenLoad
MultiUp: Part1
  • BdUpload
  • DownAce
  • Fichier
  • FileCloud
  • Filerio
  • FilesCdn
  • IndiShare
  • Kbagi
  • Turbobit
  • UpToBox
  • Uppit
, Part2
  • BdUpload
  • DownAce
  • Fichier
  • FileCloud
  • Filerio
  • FilesCdn
  • IndiShare
  • Kbagi
  • Turbobit
  • UpToBox
  • Uppit

Sendspace: Part1, Part2, Part3
SolidFiles: Part1, Part2
ZippyShare: Part1, Part2
HashesCRC32: 7BA3C514, MD5: 71D7FD8BF166DEC2D5634F4639C91ADD, SHA1: BE2BDAE7C055C204600CA29536364F3C7723222F, SHA256: 9C3F6939D01728E87EE22832FE60D97143B9338F748F083524F6E4E7FAF30597, ED2K: 47AF4517DCB3E972EB6FC63BD9CDCC26
Screenshots
screenshotscreenshotscreenshotscreenshotscreenshot
SubtitlesAll Attachments | [ViM] Val x Love - 01 [eng, ASS]
Additional Info
General
Unique ID                                : 240493237010609448803154316959222903600 (0xB4ED500A5D1063D9AD8DA50CE8F8B330)
Complete name                            : [ViM] Val x Love - 01 (1920x1080 10bit AAC) [7BA3C514].mkv
Format                                   : Matroska
Format version                           : Version 4
File size                                : 702 MiB
Duration                                 : 23 min 50 s
Overall bit rate                         : 4 115 kb/s
Movie name                               : [ViM] Val x Love - 01
Encoded date                             : UTC 2019-10-12 21:59:21
Writing application                      : mkvmerge v7.6.0 ('Garden of Dreams') 32bit built on Feb  8 2015 12:51:39
Writing library                          : libebml v1.3.1 + libmatroska v1.4.2
Attachments                              : Bad Habits.otf / EstandarRounded-Bold.otf / FOTManyoSoshoStdStripped-EB2 (1).otf / FOT-RodinHappyPro-UB.otf / FOT-SlumpStd-DB.otf / GandhiSans-Bold.otf / GandhiSans-BoldItalic.otf / kidsrock DEMO.otf / KozMinPro-Heavy.otf / KozukaMinchoProStrp-H.otf / Amplitude-Black.ttf / ANJAELIANEACCENT-NORNAL.TTF / BlueBrush-Normal.ttf / FOT-MatisseElegantoPro-EB.ttf / IwaOMinPro-Bd-Fate_0.ttf / IwaOMinPro-Hd-Fate.ttf / KozGoPr6n-R.ttf / PFReminderProMedium.ttf / GANDHISANS-BOLD.OTF / GANDHISANS-BOLDITALIC.OTF

Video
ID                                       : 1
Format                                   : AVC
Format/Info                              : Advanced Video Codec
Format profile                           : High 10@L5
Format settings                          : CABAC / 16 Ref Frames
Format settings, CABAC                   : Yes
Format settings, ReFrames                : 16 frames
Codec ID                                 : V_MPEG4/ISO/AVC
Duration                                 : 23 min 50 s
Bit rate                                 : 3 861 kb/s
Width                                    : 1 920 pixels
Height                                   : 1 080 pixels
Display aspect ratio                     : 16:9
Frame rate mode                          : Constant
Frame rate                               : 23.976 (24000/1001) FPS
Color space                              : YUV
Chroma subsampling                       : 4:2:0
Bit depth                                : 10 bits
Scan type                                : Progressive
Bits/(Pixel*Frame)                       : 0.078
Stream size                              : 658 MiB (94%)
Writing library                          : x264 core 152 r2851+58 429492e t_mod_Custom [10-bit@all X86_64]
Encoding settings                        : cabac=1 / ref=16 / deblock=1:0:-1 / analyse=0x3:0x133 / me=umh / subme=10 / psy=1 / fade_compensate=0.70 / psy_rd=0.70:0.10 / mixed_ref=1 / me_range=32 / chroma_me=1 / trellis=2 / 8x8dct=1 / cqm=0 / deadzone=21,11 / fast_pskip=0 / chroma_qp_offset=-2 / threads=12 / lookahead_threads=3 / sliced_threads=0 / nr=0 / decimate=0 / interlaced=0 / bluray_compat=0 / constrained_intra=0 / fgo=0 / bframes=16 / b_pyramid=2 / b_adapt=2 / b_bias=0 / direct=3 / weightb=1 / open_gop=0 / weightp=2 / keyint=250 / keyint_min=25 / scenecut=40 / intra_refresh=0 / rc_lookahead=48 / rc=crf / mbtree=1 / crf=17.0000 / qcomp=0.70 / qpmin=0:0:0 / qpmax=81:81:81 / qpstep=4 / ip_ratio=1.40 / aq=3:0.75 / aq-sensitivity=10.00 / aq-factor=1.00:1.00:1.00 / aq2=0 / aq3=0
Language                                 : English
Default                                  : Yes
Forced                                   : No
Color range                              : Limited
Color primaries                          : BT.709
Transfer characteristics                 : BT.709
Matrix coefficients                      : BT.709

Audio
ID                                       : 2
Format                                   : AAC LC
Format/Info                              : Advanced Audio Codec Low Complexity
Codec ID                                 : A_AAC-2
Duration                                 : 23 min 50 s
Bit rate                                 : 128 kb/s
Channel(s)                               : 2 channels
Channel layout                           : L R
Sampling rate                            : 44.1 kHz
Frame rate                               : 43.066 FPS (1024 SPF)
Compression mode                         : Lossy
Stream size                              : 21.8 MiB (3%)
Language                                 : Japanese
Default                                  : Yes
Forced                                   : No

Text
ID                                       : 3
Format                                   : ASS
Codec ID                                 : S_TEXT/ASS
Codec ID/Info                            : Advanced Sub Station Alpha
Duration                                 : 23 min 39 s
Bit rate                                 : 37.5 kb/s
Count of elements                        : 13941
Compression mode                         : Lossless
Stream size                              : 6.35 MiB (1%)
Title                                    : [ViM] Val x Love - 01
Language                                 : English
Default                                  : Yes
Forced                                   : No

Menu
00:00:11.530                             : :Intro
00:00:00.000                             : :OP (Rikako Aida - for...)
00:01:41.530                             : :Part A
00:21:35.520                             : :Part B / :ED
00:23:05.480                             : :Preview
beta
Anime DDL+NZB mirror
Current Time: 06/12/2019 20:39



About/FAQs